<?xml version="1.0" standalone="no"?> <!DOCTYPE svg PUBLIC "-//W3C//DTD SVG 1.0//EN" "http://www.w3.org/TR/2001/REC-SVG-20010904/DTD/svg10.dtd" > <svg xmlns="http://www.w3.org/2000/svg" width="100%" height="100%">
<defs >
<font id="verlag-bold" horiz-adv-x="401" ><font-face
    font-family="Verlag Bold"
    units-per-em="1000"
    panose-1="0 0 0 0 0 0 0 0 0 0"
    ascent="800"
    descent="-200"
    alphabetic="0" />
<missing-glyph horiz-adv-x="500" />
<glyph unicode=" " glyph-name="space" horiz-adv-x="215" />
<glyph unicode="!" glyph-name="exclam" horiz-adv-x="262" d="M194 733L170 205H92L68 733H194ZM196 58Q196 30 177 11T131 -8T85 11T66 58Q66 85 85 104T131 123T177 104T196 58Z" />
<glyph unicode="&quot;" glyph-name="quotedbl" horiz-adv-x="426" d="M234 638L86 442L37 475L147 695L234 638ZM408 628L260 431L210 464L321 685L408 628Z" />
<glyph unicode="#" glyph-name="numbersign" horiz-adv-x="613" d="M588 440L570 358H464L434 226H541L523 144H416L385 0H296L328 144H221L190 0H100L132 144H25L44 226H150L179 358H73L91 440H196L228 583H317L286 440H392L424 583H513L481 440H588ZM374 358H268L239
226H345L374 358Z" />
<glyph unicode="$" glyph-name="dollar" horiz-adv-x="480" d="M247 665L314 662L307 590Q374 580 427 547L390 454Q347 483 299 494L285 338Q367 306 402 268T437 168Q437 94 386 44T253 -11L247 -82L180 -79L186 -8Q106 2 33 52L75 147Q135 103 194 90L209 258Q131
288 96 325T61 422Q61 490 110 538T241 593L247 665ZM330 159Q330 205 274 232L261 86Q330 95 330 159ZM167 432Q167 392 221 365L232 498Q167 489 167 432Z" />
<glyph unicode="%" glyph-name="percent" horiz-adv-x="706" d="M316 506T316 443T280 336T182 292Q121 292 86 336T50 443T86 549T184 593T281 550ZM616 557L142 -18L90 26L564 600L616 557ZM656 204T656 141T620 34T522 -10T426 33T391 141Q391 204 426 247T524
291T621 248ZM236 405T236 443T223 504T183 527Q158 527 144 504T130 443T144 382T183 359Q209 359 222 382ZM576 103T576 141T563 202T523 225T484 202T470 141T484 80T523 56T562 79Z" />
<glyph unicode="&amp;" glyph-name="ampersand" horiz-adv-x="632" d="M524 293L594 235Q541 168 498 124Q544 84 580 55L514 -15Q511 -13 476 16T425 59Q336 -10 245 -10Q164 -10 107 34T50 156Q50 208 86 251T184 323Q144 386 144 437Q144 503 194 550T312 598Q384
598 428 555T472 457Q472 406 437 363T327 292Q373 237 431 185Q473 226 524 293ZM374 449Q374 476 357 494T312 512Q286 512 268 491T249 439Q249 400 281 353Q374 390 374 449ZM357 122Q281 193 232 254Q201 241 182 217T163 162Q163 126 188 104T254 82Q300
82 357 122Z" />
<glyph unicode="&apos;" glyph-name="quotesingle" horiz-adv-x="252" d="M234 638L86 442L37 475L147 695L234 638Z" />
<glyph unicode="(" glyph-name="parenleft" horiz-adv-x="362" d="M370 -164L318 -239Q189 -157 121 -25T52 258T120 541T318 755L370 681Q261 611 206 501T151 258Q151 126 206 16T370 -164Z" />
<glyph unicode=")" glyph-name="parenright" horiz-adv-x="362" d="M310 258Q310 108 242 -24T44 -239L-8 -164Q101 -94 156 16T212 258T157 500T-8 681L44 755Q174 674 242 542T310 258Z" />
<glyph unicode="*" glyph-name="asterisk" horiz-adv-x="395" d="M355 591L247 564L319 480L256 435L197 528L138 435L75 480L147 564L39 591L63 664L166 623L158 732H236L228 623L331 664L355 591Z" />
<glyph unicode="+" glyph-name="plus" horiz-adv-x="459" d="M399 245H275V114H184V245H60V332H184V463H275V332H399V245Z" />
<glyph unicode="," glyph-name="comma" horiz-adv-x="247" d="M190 43Q190 -4 157 -53T70 -130L57 -111Q110 -65 126 -7Q96 -5 78 13T60 59Q60 84 78 102T122 121Q154 121 172 99T190 43Z" />
<glyph unicode="-" glyph-name="hyphen" horiz-adv-x="345" d="M297 201H49V288H297V201Z" />
<glyph unicode="." glyph-name="period" horiz-adv-x="247" d="M59 58Q59 85 78 104T124 123T170 104T189 58Q189 30 170 11T124 -8T78 11T59 58Z" />
<glyph unicode="/" glyph-name="slash" horiz-adv-x="356" d="M356 733L118 -216H28L267 733H356Z" />
<glyph unicode="0" glyph-name="zero" horiz-adv-x="562" d="M520 292Q520 164 457 77T280 -10Q168 -10 106 77T44 292T107 506T284 593T458 507T520 292ZM403 199T403 292T372 442T282 499T192 442T161 292T192 142T282 85T372 142Z" />
<glyph unicode="1" glyph-name="one" horiz-adv-x="376" d="M276 0H163V455L62 416L26 512L246 596H276V0Z" />
<glyph unicode="2" glyph-name="two" horiz-adv-x="464" d="M417 0H29L27 47Q161 175 220 249Q292 336 292 397Q292 440 266 465T193 491Q135 491 78 453L40 541Q117 593 205 593Q297 593 351 543T406 416Q406 333 328 231Q277 167 205 98H417V0Z" />
<glyph unicode="3" glyph-name="three" horiz-adv-x="455" d="M414 529L239 341Q326 332 368 289T411 177Q411 100 351 45T194 -10Q118 -10 35 17L61 111Q127 89 186 89Q237 89 267 111T297 175Q297 214 265 237T170 260Q127 260 99 254L82 293L256 485H44V583H412L414
529Z" />
<glyph unicode="4" glyph-name="four" horiz-adv-x="499" d="M477 147H390V-2H282V147H22V207L334 594H390V239H477V147ZM282 239V391L160 239H282Z" />
<glyph unicode="5" glyph-name="five" horiz-adv-x="485" d="M440 189Q440 104 378 47T214 -10Q136 -10 58 17L79 113Q144 88 205 88Q264 88 296 114T329 183T297 248T201 272Q138 272 91 260L82 271V583H409V485H188V366Q218 368 234 368Q336 368 388 319T440 189Z" />
<glyph unicode="6" glyph-name="six" horiz-adv-x="503" d="M458 193Q458 113 402 52T252 -10Q159 -10 102 50T44 201Q44 448 372 611L419 523Q241 440 182 342Q222 375 281 375Q362 375 410 323T458 193ZM348 187Q348 235 323 264T255 294Q208 294 182 266T155
188Q155 142 182 111T252 80Q297 80 322 111T348 187Z" />
<glyph unicode="7" glyph-name="seven" horiz-adv-x="458" d="M447 583L189 0H75L288 482H42V583H447Z" />
<glyph unicode="8" glyph-name="eight" horiz-adv-x="510" d="M455 157Q455 87 400 39T255 -10T111 38T55 157Q55 255 150 298Q67 342 67 429Q67 499 119 546T255 593T390 546T442 429Q442 342 360 298Q455 255 455 157ZM337 417Q337 452 314 475T255 499T196
476T173 417Q173 381 195 358T255 335T314 358T337 417ZM341 170Q341 208 318 231T255 255T193 232T169 170Q169 133 193 109T255 84T317 108T341 170Z" />
<glyph unicode="9" glyph-name="nine" horiz-adv-x="498" d="M460 379Q460 267 382 163T131 -27L84 58Q247 140 316 237Q278 212 229 212Q147 212 98 264T49 393Q49 474 105 533T254 593Q348 593 404 534T460 379ZM348 399Q348 445 322 474T253 504Q209 504 184
474T159 400Q159 352 183 323T251 294Q298 294 323 321T348 399Z" />
<glyph unicode=":" glyph-name="colon" horiz-adv-x="247" d="M59 58Q59 85 78 104T124 123T170 104T189 58Q189 30 170 11T124 -8T78 11T59 58ZM59 321Q59 347 78 366T124 386T170 367T189 321Q189 293 170 274T124 255T78 274T59 321Z" />
<glyph unicode=";" glyph-name="semicolon" horiz-adv-x="247" d="M190 43Q190 -4 157 -53T70 -130L57 -111Q110 -65 126 -7Q96 -5 78 13T60 59Q60 84 78 102T122 121Q154 121 172 99T190 43ZM59 321Q59 347 78 366T124 386T170 367T189 321Q189 293 170 274T124
255T78 274T59 321Z" />
<glyph unicode="&lt;" glyph-name="less" horiz-adv-x="394" d="M355 113L290 45L38 288L290 532L355 463L170 287L355 113Z" />
<glyph unicode="=" glyph-name="equal" horiz-adv-x="431" d="M371 326H60V411H371V326ZM371 166H60V250H371V166Z" />
<glyph unicode="&gt;" glyph-name="greater" horiz-adv-x="394" d="M356 289L105 45L39 115L224 290L39 465L105 532L356 289Z" />
<glyph unicode="?" glyph-name="question" horiz-adv-x="394" d="M377 567Q377 526 358 492T313 433T259 386T213 335T194 274V217H93V289Q93 335 117 375T171 439T224 494T249 555Q249 634 148 634Q97 634 45 614L23 714Q98 740 169 740Q270 740 323 691T377
567ZM208 58Q208 30 189 11T142 -8Q115 -8 96 11T77 58Q77 85 96 104T142 123Q170 123 189 104T208 58Z" />
<glyph unicode="@" glyph-name="at" horiz-adv-x="687" d="M640 315Q640 214 573 165Q544 144 505 144Q445 144 421 193Q380 149 321 149Q281 149 255 171T229 232Q229 267 255 289T324 312Q362 312 392 297V306Q392 361 331 361Q304 361 267 351L259 407Q301
421 344 421Q407 421 435 392T463 303V239Q463 215 476 204T508 192Q529 192 543 203Q582 232 582 308Q582 347 569 385T529 459T455 515T346 537Q250 537 181 464T111 290Q111 184 182 113T377 42Q429 42 496 65L510 12Q429 -12 374 -12Q229 -12 140 75T50 290Q50
414 137 502T346 591Q416 591 474 566T567 500T621 411T640 315ZM392 220V251Q370 267 345 267Q327 267 315 258T302 233Q302 197 345 197Q374 197 392 220Z" />
<glyph unicode="A" glyph-name="A" horiz-adv-x="687" d="M690 0H558L487 168H197L126 0H-3L335 743H353L690 0ZM446 267L342 512L238 267H446Z" />
<glyph unicode="B" glyph-name="B" horiz-adv-x="616" d="M576 204Q576 117 497 55T278 -7Q190 -7 80 7V725Q175 739 268 739Q405 739 480 683T556 547Q556 427 428 380Q576 339 576 204ZM427 526Q427 574 392 602T290 631Q247 631 203 624V421Q230 418 277 418Q353
418 390 447T427 526ZM442 217Q442 266 400 297T279 329Q228 329 203 326V106Q245 101 292 101Q365 101 403 132T442 217Z" />
<glyph unicode="C" glyph-name="C" horiz-adv-x="719" d="M689 57Q581 -12 450 -12Q277 -12 166 95T55 366Q55 529 166 637T450 745Q577 745 686 678L643 572Q545 628 448 628Q329 628 259 556T189 366Q189 249 260 177T451 105Q553 105 651 163L689 57Z" />
<glyph unicode="D" glyph-name="D" horiz-adv-x="772" d="M717 373Q717 209 608 102T291 -6Q207 -6 80 6V726Q187 738 284 738Q492 738 604 634T717 373ZM583 373Q583 490 510 559T299 628Q244 628 205 622V111Q242 105 310 105Q446 105 514 178T583 373Z" />
<glyph unicode="E" glyph-name="E" horiz-adv-x="594" d="M527 0H80V733H527V619H205V427H496V317H205V114H527V0Z" />
<glyph unicode="F" glyph-name="F" horiz-adv-x="555" d="M527 619H205V405H488V294H205V0H80V733H527V619Z" />
<glyph unicode="G" glyph-name="G" horiz-adv-x="775" d="M426 388H717V68Q595 -12 444 -12Q339 -12 251 34T109 168T55 366Q55 532 169 638T444 745Q580 745 704 669L647 569Q552 630 450 630Q329 630 259 555T189 366Q189 250 264 175T449 99Q534 99 597 134V278H426V388Z"
/>
<glyph unicode="H" glyph-name="H" horiz-adv-x="747" d="M667 0H542V315H205V0H80V733H205V427H542V733H667V0Z" />
<glyph unicode="I" glyph-name="I" horiz-adv-x="295" d="M210 0H85V733H210V0Z" />
<glyph unicode="J" glyph-name="J" horiz-adv-x="503" d="M428 733V236Q428 121 370 55T193 -12Q94 -12 14 40L61 142Q119 102 191 102Q249 102 276 137T303 244V733H428Z" />
<glyph unicode="K" glyph-name="K" horiz-adv-x="672" d="M660 0H505L205 352V0H80V733H205V403L493 733H644L324 381L660 0Z" />
<glyph unicode="L" glyph-name="L" horiz-adv-x="545" d="M527 0H80V733H205V114H527V0Z" />
<glyph unicode="M" glyph-name="M" horiz-adv-x="883" d="M813 0H690L680 439L449 89H434L201 440L193 0H70L101 742L120 744L445 258L762 744L782 742L813 0Z" />
<glyph unicode="N" glyph-name="N" horiz-adv-x="758" d="M678 -11L664 -14L205 470V0H80V743L100 747L553 270V733H678V-11Z" />
<glyph unicode="O" glyph-name="O" horiz-adv-x="851" d="M796 366Q796 204 689 96T422 -12T159 95T55 366T162 637T429 745Q588 745 692 638T796 366ZM662 366Q662 482 596 557T426 633T256 558T189 366Q189 251 255 175T426 99Q529 99 595 175T662 366Z" />
<glyph unicode="P" glyph-name="P" horiz-adv-x="599" d="M570 491Q570 377 493 307T278 236Q277 236 205 239V0H80V726Q177 738 266 738Q411 738 490 669T570 491ZM440 487Q440 544 400 583T287 623Q244 623 205 617V349Q255 345 275 345Q357 345 398 383T440 487Z" />
<glyph unicode="Q" glyph-name="Q" horiz-adv-x="851" d="M809 62L732 -27L639 58Q540 -12 422 -12Q263 -12 159 95T55 366T162 637T429 745Q588 745 692 638T796 366Q796 238 721 139L809 62ZM662 366Q662 481 596 557T426 633Q322 633 256 558T190 366Q190 251
256 175T426 99Q495 99 550 137L429 243L506 331L625 223Q662 289 662 366Z" />
<glyph unicode="R" glyph-name="R" horiz-adv-x="633" d="M623 0H478L318 264Q305 263 279 263Q254 263 206 265V0H81V726Q180 738 274 738Q423 738 498 674T574 507Q574 436 537 381T431 295L623 0ZM442 501Q442 557 402 591T290 626Q236 626 206 620V370Q237
366 278 366Q358 366 400 401T442 501Z" />
<glyph unicode="S" glyph-name="S" horiz-adv-x="537" d="M497 207Q497 115 431 52T255 -12Q135 -12 25 60L68 172Q162 104 259 104Q314 104 342 131T370 200T343 269T232 332Q139 371 99 421T58 540Q58 624 123 684T299 745Q404 745 483 692L443 582Q368 634
296 634Q241 634 212 608T183 543Q183 507 211 482T310 425Q416 379 456 330T497 207Z" />
<glyph unicode="T" glyph-name="T" horiz-adv-x="640" d="M615 619H383V0H258V619H25V733H615V619Z" />
<glyph unicode="U" glyph-name="U" horiz-adv-x="729" d="M658 281Q658 142 579 65T363 -12Q225 -12 149 64T72 281V733H197V290Q197 197 240 150T365 102Q445 102 489 150T533 290V733H658V281Z" />
<glyph unicode="V" glyph-name="V" horiz-adv-x="688" d="M690 733L352 -10H336L-3 733H140L346 245L551 733H690Z" />
<glyph unicode="W" glyph-name="W" horiz-adv-x="969" d="M964 733L732 -12L712 -14L484 496L259 -14L240 -12L5 733H143L275 271L479 739H493L698 274L828 733H964Z" />
<glyph unicode="X" glyph-name="X" horiz-adv-x="703" d="M684 0H534L351 275L167 0H20L276 362L20 733H170L353 458L538 733H684L428 372L684 0Z" />
<glyph unicode="Y" glyph-name="Y" horiz-adv-x="671" d="M656 733L398 308V0H273V309L15 733H158L338 423L516 733H656Z" />
<glyph unicode="Z" glyph-name="Z" horiz-adv-x="650" d="M620 718L231 114H611V0H35L30 15L419 619H56V733H615L620 718Z" />
<glyph unicode="[" glyph-name="bracketleft" horiz-adv-x="322" d="M300 -216H79V733H300V646H174V-130H300V-216Z" />
<glyph unicode="\" glyph-name="backslash" horiz-adv-x="356" d="M328 -216H238L0 733H89L328 -216Z" />
<glyph unicode="]" glyph-name="bracketright" horiz-adv-x="322" d="M244 -216H23V-130H148V646H23V733H244V-216Z" />
<glyph unicode="^" glyph-name="asciicircum" horiz-adv-x="470" d="M407 491H300L235 575L171 491H70L218 668H263L407 491Z" />
<glyph unicode="_" glyph-name="underscore" horiz-adv-x="520" d="M520 0H0V68H520V0Z" />
<glyph unicode="`" glyph-name="grave" horiz-adv-x="470" d="M368 532L335 479L131 570L184 667L368 532Z" />
<glyph unicode="a" glyph-name="a" horiz-adv-x="459" d="M412 0H304V41Q253 -8 180 -8Q115 -8 73 28T30 127Q30 185 72 222T185 260Q242 260 300 233V251Q300 346 197 346Q150 346 91 328L78 413Q150 435 215 435Q412 435 412 247V0ZM300 107V160Q256 189 212
189Q179 189 158 173T137 128Q137 99 157 83T214 66Q267 66 300 107Z" />
<glyph unicode="b" glyph-name="b" horiz-adv-x="534" d="M495 219Q495 127 435 60T292 -8Q217 -8 166 38V0H57V733H170V389Q221 435 299 435Q383 435 439 374T495 219ZM382 217Q382 275 354 310T272 345Q211 345 170 302V131Q208 83 266 83Q320 83 351 119T382 217Z" />
<glyph unicode="c" glyph-name="c" horiz-adv-x="432" d="M420 35Q352 -8 277 -8Q167 -8 102 55T36 212T101 370T277 435Q352 435 420 392L383 313Q328 343 275 343Q219 343 184 309T148 213Q148 155 186 120T281 85Q336 85 388 115L420 35Z" />
<glyph unicode="d" glyph-name="d" horiz-adv-x="531" d="M477 0H368V40Q317 -8 240 -8Q151 -8 95 54T39 212Q39 304 100 369T246 435Q316 435 364 397V733H477V0ZM364 131V295Q325 345 264 345Q215 345 184 310T152 214Q152 154 182 119T266 83Q325 83 364 131Z" />
<glyph unicode="e" glyph-name="e" horiz-adv-x="476" d="M447 230Q447 194 444 179H148Q163 81 281 81Q331 81 405 104L419 16Q330 -8 270 -8Q155 -8 96 54T36 212Q36 304 94 369T252 435Q345 435 396 377T447 230ZM150 250H346Q342 294 317 320T250 346T182
321T150 250Z" />
<glyph unicode="f" glyph-name="f" horiz-adv-x="339" d="M356 731L343 635Q327 639 301 639Q255 639 235 616T215 531V427H335V335H215V0H102V335H23V350L102 431V531Q102 631 148 685T286 740Q323 740 356 731Z" />
<glyph unicode="g" glyph-name="g" horiz-adv-x="529" d="M477 -22Q477 -130 427 -177T278 -224Q210 -224 136 -203L147 -103Q205 -123 260 -123Q314 -123 339 -100T364 -24V28Q318 -8 249 -8Q157 -8 98 50T39 208Q39 302 101 368T248 435Q319 435 368 396V427H477V-22ZM364
124V301Q325 344 268 344Q216 344 184 307T152 207Q152 151 183 116T271 81T364 124Z" />
<glyph unicode="h" glyph-name="h" horiz-adv-x="515" d="M466 0H352V264Q352 341 285 341Q226 341 171 281V0H57V733H170V358Q243 435 325 435Q394 435 430 396T466 292V0Z" />
<glyph unicode="i" glyph-name="i" horiz-adv-x="237" d="M186 603T186 575T167 528T119 508T72 527T53 575T72 622T119 642T166 623ZM176 0H62V427H176V0Z" />
<glyph unicode="j" glyph-name="j" horiz-adv-x="237" d="M187 603T187 575T168 528T120 508T73 527T54 575T73 622T120 642T167 623ZM177 427V-57Q177 -224 16 -224Q-19 -224 -57 -216L-46 -122Q-20 -126 -5 -126Q30 -126 46 -111T63 -56V427H177Z" />
<glyph unicode="k" glyph-name="k" horiz-adv-x="476" d="M472 0H336L170 202V0H57V733H170V244L328 427H464L275 226L472 0Z" />
<glyph unicode="l" glyph-name="l" horiz-adv-x="231" d="M172 0H59V733H172V0Z" />
<glyph unicode="m" glyph-name="m" horiz-adv-x="780" d="M731 0H617V267Q617 340 557 340Q505 340 451 281V0H337V264Q337 304 323 322T275 341Q223 341 171 279V0H57V427H167V356Q244 435 321 435Q410 435 438 353Q512 435 601 435Q665 435 698 397T731 292V0Z" />
<glyph unicode="n" glyph-name="n" horiz-adv-x="512" d="M463 0H349V264Q349 304 334 322T284 341Q226 341 171 281V0H57V427H167V356Q244 435 325 435Q393 435 428 397T463 292V0Z" />
<glyph unicode="o" glyph-name="o" horiz-adv-x="518" d="M482 308T482 214T421 56T260 -8Q159 -8 98 56T36 214Q36 307 97 371T260 435Q360 435 421 372ZM370 214Q370 275 340 311T260 348Q209 348 179 312T149 214T179 116T260 79Q310 79 340 115T370 214Z" />
<glyph unicode="p" glyph-name="p" horiz-adv-x="534" d="M495 217Q495 123 435 58T282 -8Q220 -8 170 20V-216H57V427H166V387Q222 435 301 435Q385 435 440 374T495 217ZM382 216Q382 273 353 309T273 345Q212 345 170 300V121Q204 82 269 82Q318 82 350 118T382 216Z" />
<glyph unicode="q" glyph-name="q" horiz-adv-x="531" d="M477 -217H364V30Q317 -8 244 -8Q156 -8 98 51T39 208Q39 303 101 369T247 435Q315 435 368 394V427H477V-217ZM364 129V295Q325 345 266 345Q216 345 184 308T152 210T183 117T271 83Q331 83 364 129Z" />
<glyph unicode="r" glyph-name="r" horiz-adv-x="334" d="M319 323Q209 335 171 281V0H57V427H167V357Q226 435 319 435V323Z" />
<glyph unicode="s" glyph-name="s" horiz-adv-x="384" d="M357 128Q357 69 310 31T192 -8Q102 -8 23 48L67 129Q130 79 190 79Q251 79 251 123Q251 145 220 160T150 186T80 225T48 300Q48 358 93 396T211 435Q282 435 351 395L316 312Q255 349 206 349Q179 349
165 338T150 309T171 280T223 259T284 236T335 195T357 128Z" />
<glyph unicode="t" glyph-name="t" horiz-adv-x="339" d="M321 335H202V139Q202 87 253 87Q267 87 290 92L311 4Q256 -8 220 -8Q156 -8 123 27T89 145V335H8V350L89 431V500L202 571V427H321V335Z" />
<glyph unicode="u" glyph-name="u" horiz-adv-x="511" d="M459 0H349V66Q275 -8 194 -8Q125 -8 89 31T53 135V427H167V163Q167 87 235 87Q294 87 345 143V427H459V0Z" />
<glyph unicode="v" glyph-name="v" horiz-adv-x="456" d="M461 427L236 -11H216L-5 427H122L230 173L338 427H461Z" />
<glyph unicode="w" glyph-name="w" horiz-adv-x="635" d="M636 427L471 -11H451L320 249L188 -11H168L2 427H128L199 187L309 428H329L442 187L511 427H636Z" />
<glyph unicode="x" glyph-name="x" horiz-adv-x="458" d="M446 0H321L229 142L134 0H13L166 212L13 427H138L231 284L325 427H446L295 214L446 0Z" />
<glyph unicode="y" glyph-name="y" horiz-adv-x="461" d="M463 427L161 -216H48L178 43L-2 427H124L233 156L340 427H463Z" />
<glyph unicode="z" glyph-name="z" horiz-adv-x="424" d="M405 412L181 94H400V0H22L17 15L240 333H36V427H400L405 412Z" />
<glyph unicode="{" glyph-name="braceleft" horiz-adv-x="311" d="M299 -223Q207 -223 159 -176T110 -41V153Q110 187 97 202T48 218H25V299H48Q83 299 96 314T110 364V557Q110 645 158 692T299 740V647Q251 647 229 625T207 547V371Q207 324 192 301T134 258Q177
238 192 216T207 145V-30Q207 -86 229 -108T299 -131V-223Z" />
<glyph unicode="|" glyph-name="bar" horiz-adv-x="267" d="M177 -216H90V733H177V-216Z" />
<glyph unicode="}" glyph-name="braceright" horiz-adv-x="311" d="M286 218H263Q228 218 215 203T201 153V-41Q201 -129 153 -176T12 -223V-131Q60 -131 82 -108T105 -30V145Q105 193 119 215T177 258Q134 277 120 300T105 371V547Q105 602 83 624T12 647V740Q104
740 152 693T201 557V364Q201 330 214 315T263 299H286V218Z" />
<glyph unicode="~" glyph-name="asciitilde" horiz-adv-x="470" d="M406 364Q357 305 299 305Q266 305 233 324Q202 343 176 343Q140 343 108 305L68 369Q116 428 175 428Q208 428 241 409Q270 391 296 391Q331 391 363 429L406 364Z" />
</font>
</defs>
</svg>
