<?xml version="1.0" standalone="no"?> <!DOCTYPE svg PUBLIC "-//W3C//DTD SVG 1.0//EN" "http://www.w3.org/TR/2001/REC-SVG-20010904/DTD/svg10.dtd" > <svg xmlns="http://www.w3.org/2000/svg" width="100%" height="100%">
<defs >
<font id="verlag-book" horiz-adv-x="379" ><font-face
    font-family="Verlag Book"
    units-per-em="1000"
    panose-1="0 0 0 0 0 0 0 0 0 0"
    ascent="800"
    descent="-200"
    alphabetic="0" />
<missing-glyph horiz-adv-x="500" />
<glyph unicode=" " glyph-name="space" horiz-adv-x="225" />
<glyph unicode="!" glyph-name="exclam" horiz-adv-x="220" d="M154 733L140 182H80L66 733H154ZM162 44Q162 22 147 7T110 -8Q89 -8 74 7T59 44Q59 65 74 80T110 95Q132 95 147 80T162 44Z" />
<glyph unicode="&quot;" glyph-name="quotedbl" horiz-adv-x="402" d="M215 645L88 468L44 497L138 693L215 645ZM372 634L243 456L199 485L293 683L372 634Z" />
<glyph unicode="#" glyph-name="numbersign" horiz-adv-x="590" d="M565 427L551 363H445L411 213H518L504 150H397L364 0H294L327 150H202L169 0H98L131 150H25L39 213H145L178 363H72L86 427H192L226 576H297L264 427H388L422 576H492L459 427H565ZM374 363H250L216
213H341L374 363Z" />
<glyph unicode="$" glyph-name="dollar" horiz-adv-x="439" d="M225 651L285 646L280 583Q338 576 388 542L352 479Q316 506 275 514L260 321Q331 288 363 253T396 160Q396 91 349 44T234 -10L229 -75L169 -70L173 -8Q102 1 33 50L73 114Q126 73 179 61L195 268Q127
299 94 333T61 424Q61 486 105 532T219 585L225 651ZM319 154Q319 208 254 243L239 59Q276 66 297 90T319 154ZM137 429Q137 385 201 349L214 515Q137 501 137 429Z" />
<glyph unicode="%" glyph-name="percent" horiz-adv-x="666" d="M295 502T295 439T262 334T171 292Q114 292 82 334T50 439T83 544T173 586Q231 586 263 544ZM595 558L116 -19L71 18L550 595L595 558ZM616 200T616 137T583 32T493 -10Q435 -10 404 32T372 137T404
242T495 284Q552 284 584 242ZM233 400T233 439T217 503T172 529T127 504T111 439T127 375T172 349T217 374ZM555 98T555 137T539 201T494 227T449 202T433 137T449 73T494 47T539 72Z" />
<glyph unicode="&amp;" glyph-name="ampersand" horiz-adv-x="608" d="M513 282L567 242Q509 167 465 119L563 37L517 -16L414 68Q324 -10 231 -10Q152 -10 101 32T50 152Q50 253 184 316Q145 380 145 431Q145 495 192 540T296 586Q361 586 398 547T436 458Q436
346 293 287Q341 228 416 162Q455 203 513 282ZM367 450Q367 480 347 502T296 524Q265 524 242 498T219 435Q219 394 256 337Q367 384 367 450ZM365 112Q271 198 220 264Q178 248 153 218T127 151Q127 108 157 82T235 56Q297 56 365 112Z" />
<glyph unicode="&apos;" glyph-name="quotesingle" horiz-adv-x="245" d="M215 645L88 468L44 497L138 693L215 645Z" />
<glyph unicode="(" glyph-name="parenleft" horiz-adv-x="344" d="M351 -171L318 -229Q189 -151 120 -20T50 258Q50 405 119 536T318 746L351 688Q240 620 181 505T122 258T181 12T351 -171Z" />
<glyph unicode=")" glyph-name="parenright" horiz-adv-x="344" d="M294 258Q294 112 225 -19T26 -229L-7 -171Q104 -103 163 12T222 258T163 504T-7 688L26 746Q155 667 224 536T294 258Z" />
<glyph unicode="*" glyph-name="asterisk" horiz-adv-x="380" d="M340 604L231 574L302 488L252 453L190 545L128 453L79 488L149 574L40 604L59 661L165 622L159 732H221L215 622L321 661L340 604Z" />
<glyph unicode="+" glyph-name="plus" horiz-adv-x="460" d="M400 254H266V113H194V254H60V322H194V463H266V322H400V254Z" />
<glyph unicode="," glyph-name="comma" horiz-adv-x="220" d="M164 34Q164 -4 137 -47T60 -120L49 -104Q97 -62 113 -5Q89 -4 75 10T61 46Q61 66 75 80T110 95Q135 95 149 78T164 34Z" />
<glyph unicode="-" glyph-name="hyphen" horiz-adv-x="339" d="M289 208H50V276H289V208Z" />
<glyph unicode="." glyph-name="period" horiz-adv-x="220" d="M59 44Q59 65 74 80T110 95Q132 95 147 80T162 44Q162 22 147 7T110 -8Q89 -8 74 7T59 44Z" />
<glyph unicode="/" glyph-name="slash" horiz-adv-x="337" d="M337 733L99 -216H28L267 733H337Z" />
<glyph unicode="0" glyph-name="zero" horiz-adv-x="531" d="M489 288Q489 161 430 76T265 -10Q161 -10 103 75T44 288T104 500T269 586Q373 586 431 501T489 288ZM407 288Q407 388 371 453T267 518T163 453T126 288Q126 189 162 124T267 58Q334 58 370 123T407 288Z" />
<glyph unicode="1" glyph-name="one" horiz-adv-x="341" d="M237 0H158V485L57 448L33 517L224 589H237V0Z" />
<glyph unicode="2" glyph-name="two" horiz-adv-x="436" d="M386 0H22L17 11Q159 163 219 242Q259 293 278 330T297 411Q297 458 268 485T188 513Q120 513 64 475L40 539Q111 586 187 586Q275 586 327 540T379 420Q379 333 290 217Q232 143 165 71H386V0Z" />
<glyph unicode="3" glyph-name="three" horiz-adv-x="422" d="M393 565L209 330Q291 319 334 275T377 162Q377 88 324 39T182 -10Q113 -10 32 17L54 83Q123 60 178 60Q237 60 268 88T300 165Q300 215 262 242T148 269Q115 269 86 265L80 274L260 504H34V576H388L393 565Z" />
<glyph unicode="4" glyph-name="four" horiz-adv-x="483" d="M461 173H365V-2H290V173H22V193L345 587H365V244H461V173ZM290 244V417L148 244H290Z" />
<glyph unicode="5" glyph-name="five" horiz-adv-x="457" d="M405 177Q405 97 352 44T210 -10Q134 -10 56 17L77 84Q142 59 203 59T296 92T328 177Q328 224 294 253T195 282Q136 282 89 270L80 281V576H378V504H154V352Q178 354 198 354Q299 354 352 305T405 177Z" />
<glyph unicode="6" glyph-name="six" horiz-adv-x="482" d="M434 192Q434 112 381 51T240 -10Q153 -10 99 47T44 196Q44 436 360 604L394 544Q204 439 150 325Q194 370 264 370Q337 370 385 318T434 192ZM357 181Q357 237 327 272T244 308Q186 308 154 274T122
182Q122 130 156 94T240 57Q292 57 324 93T357 181Z" />
<glyph unicode="7" glyph-name="seven" horiz-adv-x="424" d="M402 576L148 0H70L297 504H31V576H402Z" />
<glyph unicode="8" glyph-name="eight" horiz-adv-x="481" d="M421 156Q421 87 371 39T240 -10T110 38T60 156Q60 202 84 238T151 296Q72 339 72 424Q72 493 119 539T240 586T361 540T408 424Q408 340 330 296Q372 275 396 239T421 156ZM334 424Q334 465 308 493T240
521Q199 521 173 493T146 424Q146 384 172 356T240 327Q282 327 308 355T334 424ZM343 114T343 158T315 231T240 261Q195 261 167 232T138 158T166 85T240 55Q286 55 314 84Z" />
<glyph unicode="9" glyph-name="nine" horiz-adv-x="472" d="M434 382Q434 270 358 165T117 -27L84 32Q265 132 324 247Q287 213 226 213Q152 213 101 264T49 389Q49 470 103 528T242 586Q331 586 382 529T434 382ZM353 401Q353 453 322 486T241 520Q189 520 158
486T126 401Q126 345 155 311T237 277Q295 277 324 310T353 401Z" />
<glyph unicode=":" glyph-name="colon" horiz-adv-x="220" d="M59 44Q59 65 74 80T110 95Q132 95 147 80T162 44Q162 22 147 7T110 -8Q89 -8 74 7T59 44ZM58 318Q58 339 73 354T110 369Q131 369 146 354T161 318Q161 296 146 281T110 266Q88 266 73 281T58 318Z" />
<glyph unicode=";" glyph-name="semicolon" horiz-adv-x="220" d="M164 34Q164 -4 137 -47T60 -120L49 -104Q97 -62 113 -5Q89 -4 75 10T61 46Q61 66 75 80T110 95Q135 95 149 78T164 34ZM58 318Q58 339 73 354T110 369Q131 369 146 354T161 318Q161 296 146 281T110
266Q88 266 73 281T58 318Z" />
<glyph unicode="&lt;" glyph-name="less" horiz-adv-x="394" d="M360 93L313 45L38 288L313 532L360 480L142 286L360 93Z" />
<glyph unicode="=" glyph-name="equal" horiz-adv-x="413" d="M353 326H60V394H353V326ZM353 182H60V250H353V182Z" />
<glyph unicode="&gt;" glyph-name="greater" horiz-adv-x="394" d="M356 289L81 45L34 97L252 291L34 484L81 532L356 289Z" />
<glyph unicode="?" glyph-name="question" horiz-adv-x="384" d="M361 574Q361 533 342 499T297 440T243 392T197 340T178 280V203H105V301Q105 335 123 365T167 419T218 464T262 514T280 570Q280 664 160 664Q104 664 44 641L22 713Q100 740 167 740Q260 740
310 694T361 574ZM192 44Q192 22 177 7T140 -8Q119 -8 104 7T89 44Q89 65 104 80T140 95Q162 95 177 80T192 44Z" />
<glyph unicode="@" glyph-name="at" horiz-adv-x="684" d="M634 313Q634 212 567 164Q537 142 499 142Q440 142 416 191Q373 145 318 145Q278 145 252 168T225 230Q225 265 251 287T319 309Q359 309 392 294V305Q392 364 328 364Q299 364 262 353L254 403Q296
417 338 417Q457 417 457 302V238Q457 214 470 203T502 191Q522 191 537 201Q576 230 576 307Q576 346 563 383T524 455T450 509T342 530Q246 530 179 459T111 286Q111 181 181 112T374 42Q424 42 493 65L507 12Q425 -12 370 -12Q225 -12 138 73T50 286Q50 410
135 497T342 584Q413 584 470 560T562 496T615 409T634 313ZM392 218V251Q365 268 334 268Q313 268 300 259T287 231Q287 191 337 191Q370 191 392 218Z" />
<glyph unicode="A" glyph-name="A" horiz-adv-x="681" d="M676 0H590L503 203H175L88 0H5L334 746H347L676 0ZM474 270L339 585L204 270H474Z" />
<glyph unicode="B" glyph-name="B" horiz-adv-x="557" d="M524 199Q524 116 452 55T257 -6Q188 -6 80 6V726Q173 738 250 738Q373 738 439 683T505 550Q505 488 476 446T376 379Q524 341 524 199ZM422 539Q422 600 381 635T257 670Q202 670 160 662V409Q187 406
246 406Q336 406 379 444T422 539ZM440 207Q440 263 389 303T248 344Q186 344 160 341V71Q202 63 268 63Q350 63 395 103T440 207Z" />
<glyph unicode="C" glyph-name="C" horiz-adv-x="714" d="M686 58Q573 -12 444 -12Q274 -12 165 94T55 366Q55 528 166 636T444 745Q573 745 686 675L653 607Q544 670 437 670Q301 670 222 585T142 366Q142 234 224 149T444 63Q552 63 660 126L686 58Z" />
<glyph unicode="D" glyph-name="D" horiz-adv-x="745" d="M690 373Q690 298 664 231T588 110T458 26T278 -6Q194 -6 80 6V726Q176 738 271 738Q371 738 452 708T584 626T662 510T690 373ZM603 373Q603 505 518 587T278 670Q202 670 160 662V71Q201 63 288 63Q443
63 523 149T603 373Z" />
<glyph unicode="E" glyph-name="E" horiz-adv-x="574" d="M509 0H80V733H509V661H160V408H474V336H160V72H509V0Z" />
<glyph unicode="F" glyph-name="F" horiz-adv-x="538" d="M509 661H160V394H474V322H160V0H80V733H509V661Z" />
<glyph unicode="G" glyph-name="G" horiz-adv-x="775" d="M441 363H715V74Q599 -12 447 -12Q289 -12 172 94T55 366Q55 449 88 521T175 642T298 717T438 745Q523 745 585 723T712 656L670 593Q561 673 439 673Q303 673 223 583T142 366Q142 236 231 148T448 59Q552
59 635 109V288H441V363Z" />
<glyph unicode="H" glyph-name="H" horiz-adv-x="712" d="M632 0H552V336H160V0H80V733H160V408H552V733H632V0Z" />
<glyph unicode="I" glyph-name="I" horiz-adv-x="250" d="M165 0H85V733H165V0Z" />
<glyph unicode="J" glyph-name="J" horiz-adv-x="454" d="M379 733V218Q379 115 325 52T172 -12Q79 -12 14 40L55 101Q109 61 173 61Q238 61 268 99T299 219V733H379Z" />
<glyph unicode="K" glyph-name="K" horiz-adv-x="599" d="M596 0H491L160 360V0H80V733H160V392L479 733H580L240 377L596 0Z" />
<glyph unicode="L" glyph-name="L" horiz-adv-x="527" d="M509 0H80V733H160V72H509V0Z" />
<glyph unicode="M" glyph-name="M" horiz-adv-x="855" d="M785 0H704L693 518L433 75H422L160 519L151 0H70L98 745L113 747L431 195L741 747L757 745L785 0Z" />
<glyph unicode="N" glyph-name="N" horiz-adv-x="726" d="M646 -11L636 -14L160 556V0H80V743L96 747L566 186V733H646V-11Z" />
<glyph unicode="O" glyph-name="O" horiz-adv-x="841" d="M786 366Q786 204 677 96T417 -12T161 95T55 366Q55 528 164 636T424 745T680 637T786 366ZM699 235T699 366T621 585T421 673T221 585T142 366T221 147T421 59T620 147Z" />
<glyph unicode="P" glyph-name="P" horiz-adv-x="551" d="M530 505Q530 393 453 324T243 255Q210 255 160 259V0H80V726Q173 738 248 738Q383 738 456 672T530 505ZM444 499Q444 568 395 617T260 666Q195 666 160 658V331Q210 325 248 325Q346 325 395 374T444 499Z" />
<glyph unicode="Q" glyph-name="Q" horiz-adv-x="841" d="M793 34L742 -25L641 65Q542 -12 416 -12Q265 -12 160 95T55 366Q55 528 163 636T423 745T679 637T785 366Q785 224 698 119L793 34ZM698 366Q698 497 620 585T420 673T221 585T142 366T220 147T420 59Q513
59 585 115Q586 115 518 176L451 236L502 294L570 233Q639 172 639 171Q698 256 698 366Z" />
<glyph unicode="R" glyph-name="R" horiz-adv-x="594" d="M585 0H488L293 289Q261 287 244 287Q209 287 161 289V0H81V726Q174 738 250 738Q387 738 459 678T532 518Q532 441 491 386T372 306L585 0ZM446 513Q446 580 398 623T262 666Q196 666 161 658V360Q201
355 250 355Q349 355 397 397T446 513Z" />
<glyph unicode="S" glyph-name="S" horiz-adv-x="502" d="M461 198Q461 109 397 49T237 -12Q129 -12 25 56L64 126Q155 61 241 61Q308 61 343 98T379 189Q379 239 350 272T234 344Q139 386 100 432T60 545Q60 627 123 686T284 745Q375 745 447 695L411 627Q349
672 279 672Q213 672 177 637T140 549Q140 510 169 478T265 416Q379 365 420 319T461 198Z" />
<glyph unicode="T" glyph-name="T" horiz-adv-x="619" d="M594 661H350V0H270V661H25V733H594V661Z" />
<glyph unicode="U" glyph-name="U" horiz-adv-x="694" d="M623 263Q623 137 547 63T346 -12Q219 -12 145 60T71 263V733H151V269Q151 163 203 112T346 60Q436 60 489 112T543 269V733H623V263Z" />
<glyph unicode="V" glyph-name="V" horiz-adv-x="675" d="M670 733L344 -13H331L5 733H95L340 153L583 733H670Z" />
<glyph unicode="W" glyph-name="W" horiz-adv-x="916" d="M906 733L704 -12L688 -14L456 566L228 -14L212 -12L10 733H91L236 193L453 739H463L681 196L825 733H906Z" />
<glyph unicode="X" glyph-name="X" horiz-adv-x="668" d="M648 0H552L333 309L113 0H20L290 365L20 733H116L335 424L555 733H648L378 368L648 0Z" />
<glyph unicode="Y" glyph-name="Y" horiz-adv-x="635" d="M615 733L357 325V0H277V326L20 733H110L320 393L527 733H615Z" />
<glyph unicode="Z" glyph-name="Z" horiz-adv-x="620" d="M578 721L163 72H573V0H42L37 11L452 661H63V733H573L578 721Z" />
<glyph unicode="[" glyph-name="bracketleft" horiz-adv-x="297" d="M273 -216H80V733H273V669H152V-153H273V-216Z" />
<glyph unicode="\" glyph-name="backslash" horiz-adv-x="337" d="M309 -216H238L0 733H70L309 -216Z" />
<glyph unicode="]" glyph-name="bracketright" horiz-adv-x="297" d="M217 -216H24V-153H145V669H24V733H217V-216Z" />
<glyph unicode="^" glyph-name="asciicircum" horiz-adv-x="440" d="M369 485H287L220 570L154 485H77L210 645H239L369 485Z" />
<glyph unicode="_" glyph-name="underscore" horiz-adv-x="520" d="M520 0H0V68H520V0Z" />
<glyph unicode="`" glyph-name="grave" horiz-adv-x="440" d="M342 516L316 474L125 563L167 641L342 516Z" />
<glyph unicode="a" glyph-name="a" horiz-adv-x="436" d="M388 0H315V44Q261 -8 185 -8Q120 -8 77 28T33 127Q33 184 76 221T184 258Q244 258 311 230V255Q311 309 285 334T201 359Q142 359 91 338L78 406Q150 428 211 428Q301 428 344 385T388 250V0ZM311 107V164Q249
198 197 198Q156 198 132 180T108 127T133 74T205 55Q266 55 311 107Z" />
<glyph unicode="b" glyph-name="b" horiz-adv-x="510" d="M470 213Q470 122 409 57T263 -8Q182 -8 131 41V0H56V733H135V382Q190 428 272 428Q357 428 413 368T470 213ZM392 212Q392 276 355 319T257 362Q183 362 135 312V113Q181 58 248 58Q311 58 351 101T392 212Z" />
<glyph unicode="c" glyph-name="c" horiz-adv-x="428" d="M410 35Q342 -8 267 -8Q168 -8 104 54T40 208T104 364T267 428Q342 428 410 385L378 325Q319 360 260 360Q197 360 157 319T116 208Q116 142 160 101T265 60Q324 60 383 95L410 35Z" />
<glyph unicode="d" glyph-name="d" horiz-adv-x="510" d="M454 0H379V43Q330 -8 245 -8Q154 -8 97 51T40 206Q40 298 101 363T247 428Q323 428 375 386V733H454V0ZM375 113V305Q329 362 253 362Q194 362 156 319T118 208Q118 143 156 101T258 58Q328 58 375 113Z" />
<glyph unicode="e" glyph-name="e" horiz-adv-x="461" d="M428 226Q428 201 425 186H117Q133 60 274 60Q321 60 390 83L404 16Q322 -8 267 -8Q158 -8 99 52T40 208Q40 299 95 363T244 428Q331 428 379 372T428 226ZM120 246H355Q351 298 322 330T239 362Q189 362
158 332T120 246Z" />
<glyph unicode="f" glyph-name="f" horiz-adv-x="295" d="M321 731L308 663Q288 668 269 668Q214 668 192 642T169 549V420H293V352H169V0H91V352H26V362L91 427V538Q91 740 256 740Q291 740 321 731Z" />
<glyph unicode="g" glyph-name="g" horiz-adv-x="510" d="M454 -39Q454 -133 407 -178T276 -224Q213 -224 135 -201L146 -129Q211 -151 264 -151Q322 -151 348 -126T375 -46V36Q323 -8 245 -8Q154 -8 97 51T40 206Q40 298 101 363T247 428Q330 428 379 381V420H454V-39ZM375
108V305Q355 329 323 345T256 362Q194 362 156 318T118 206Q118 141 156 99T263 56T375 108Z" />
<glyph unicode="h" glyph-name="h" horiz-adv-x="485" d="M433 0H354V264Q354 362 266 362Q233 362 197 342T135 294V0H56V733H135V357Q204 428 286 428Q357 428 395 389T433 285V0Z" />
<glyph unicode="i" glyph-name="i" horiz-adv-x="201" d="M151 565Q151 545 137 530T101 515T66 530T51 565Q51 586 65 601T101 616T136 601T151 565ZM140 0H61V420H140V0Z" />
<glyph unicode="j" glyph-name="j" horiz-adv-x="201" d="M153 565Q153 545 139 530T103 515T68 530T53 565Q53 586 67 601T103 616T138 601T153 565ZM142 420V-92Q142 -224 24 -224Q-5 -224 -45 -216L-36 -150Q-17 -153 -1 -153Q32 -153 47 -140T63 -98V420H142Z" />
<glyph unicode="k" glyph-name="k" horiz-adv-x="422" d="M421 0H323L135 207V0H56V733H135V235L313 420H411L208 224L421 0Z" />
<glyph unicode="l" glyph-name="l" horiz-adv-x="199" d="M139 0H60V733H139V0Z" />
<glyph unicode="m" glyph-name="m" horiz-adv-x="750" d="M698 0H619V269Q619 360 543 360Q481 360 417 293V0H338V264Q338 315 321 338T259 362Q193 362 135 291V0H56V420H131V356Q207 428 286 428Q369 428 400 350Q466 426 567 426Q632 426 665 389T698 283V0Z" />
<glyph unicode="n" glyph-name="n" horiz-adv-x="479" d="M427 0H348V264Q348 314 328 338T263 362Q197 362 135 294V0H56V420H131V356Q203 428 286 428Q356 428 391 390T427 285V0Z" />
<glyph unicode="o" glyph-name="o" horiz-adv-x="505" d="M465 302T465 210T406 55T253 -8T100 55T40 210T99 365T253 428T406 365ZM387 141T387 210T350 321T253 364Q192 364 155 322T118 210T155 99T253 56Q313 56 350 98Z" />
<glyph unicode="p" glyph-name="p" horiz-adv-x="510" d="M470 213Q470 120 410 56T257 -8Q191 -8 135 23V-216H56V420H131V378Q188 428 272 428T413 368T470 213ZM392 212Q392 276 355 319T257 362Q184 362 134 312V105Q176 57 255 57Q315 57 353 100T392 212Z" />
<glyph unicode="q" glyph-name="q" horiz-adv-x="510" d="M454 -216H375V33Q324 -8 250 -8Q158 -8 99 50T40 206Q40 300 103 364T252 428Q327 428 379 383V420H454V-216ZM375 111V305Q355 329 323 345T256 362Q196 362 157 319T118 208Q118 140 156 99T267 58Q334
58 375 111Z" />
<glyph unicode="r" glyph-name="r" horiz-adv-x="296" d="M281 351Q179 351 135 287V0H56V420H131V350Q191 428 281 428V351Z" />
<glyph unicode="s" glyph-name="s" horiz-adv-x="350" d="M316 124Q316 70 277 31T177 -8Q95 -8 27 47L67 103Q119 56 173 56Q245 56 245 116Q245 138 225 154T176 181T118 206T69 243T49 303Q49 355 88 391T192 428Q253 428 314 388L279 329Q229 364 189 364Q155
364 138 349T121 310Q121 287 151 269T218 239T285 198T316 124Z" />
<glyph unicode="t" glyph-name="t" horiz-adv-x="295" d="M282 352H158V116Q158 61 224 61Q238 61 259 64L267 0Q227 -8 198 -8Q81 -8 81 124V352H14V362L81 427V500L158 557V420H282V352Z" />
<glyph unicode="u" glyph-name="u" horiz-adv-x="479" d="M423 0H348V59Q319 31 278 12T197 -8Q126 -8 89 31T52 135V420H131V156Q131 58 219 58Q284 58 344 122V420H423V0Z" />
<glyph unicode="v" glyph-name="v" horiz-adv-x="435" d="M431 420L222 -11H209L4 420H92L219 126L346 420H431Z" />
<glyph unicode="w" glyph-name="w" horiz-adv-x="596" d="M592 420L443 -11H430L302 274L172 -11H159L8 420H96L178 146L294 422H307L431 146L508 420H592Z" />
<glyph unicode="x" glyph-name="x" horiz-adv-x="417" d="M404 0H315L211 152L104 0H19L172 208L19 420H108L214 266L319 420H404L253 210L404 0Z" />
<glyph unicode="y" glyph-name="y" horiz-adv-x="435" d="M431 420L134 -216H55L181 40L4 420H92L220 119L346 420H431Z" />
<glyph unicode="z" glyph-name="z" horiz-adv-x="405" d="M385 408L139 68H380V0H23L18 11L264 352H37V420H380L385 408Z" />
<glyph unicode="{" glyph-name="braceleft" horiz-adv-x="297" d="M279 -223Q110 -223 110 -50V162Q110 196 97 211T48 227H25V290H48Q83 290 96 305T110 355V566Q110 740 279 740V670Q230 670 206 647T182 570V371Q182 323 169 300T114 258Q156 239 169 217T182
145V-53Q182 -108 206 -131T279 -154V-223Z" />
<glyph unicode="|" glyph-name="bar" horiz-adv-x="248" d="M158 -216H90V733H158V-216Z" />
<glyph unicode="}" glyph-name="braceright" horiz-adv-x="297" d="M272 227H249Q214 227 201 212T187 162V-50Q187 -223 18 -223V-154Q67 -154 91 -131T115 -53V145Q115 194 128 216T183 258Q141 277 128 300T115 371V570Q115 624 91 647T18 670V740Q187 740
187 566V355Q187 320 200 305T249 290H272V227Z" />
<glyph unicode="~" glyph-name="asciitilde" horiz-adv-x="440" d="M367 369Q325 315 272 315Q244 315 214 334Q188 353 165 353Q136 353 107 316L71 363Q113 417 166 417Q194 417 223 398Q251 379 273 379Q302 379 331 416L367 369Z" />
</font>
</defs>
</svg>
