<?xml version="1.0" standalone="no"?> <!DOCTYPE svg PUBLIC "-//W3C//DTD SVG 1.0//EN" "http://www.w3.org/TR/2001/REC-SVG-20010904/DTD/svg10.dtd" > <svg xmlns="http://www.w3.org/2000/svg" width="100%" height="100%">
<defs >
<font id="knockout-htf48-featherweight" horiz-adv-x="314" ><font-face
    font-family="Knockout"
    units-per-em="1000"
    panose-1="2 0 6 3 0 0 0 0 0 0"
    ascent="833"
    descent="-205"
    alphabetic="0" />
<missing-glyph horiz-adv-x="500" />
<glyph unicode=" " glyph-name="space" horiz-adv-x="132" />
<glyph unicode="!" glyph-name="exclam" horiz-adv-x="166" d="M129 377L97 176H68L36 377V666H129V377ZM123 0H42V109H123V0Z" />
<glyph unicode="&quot;" glyph-name="quotedbl" horiz-adv-x="218" d="M222 666L159 469H110L153 666H222ZM115 666L65 469H18L47 666H115Z" />
<glyph unicode="#" glyph-name="numbersign" horiz-adv-x="476" d="M471 428H362L332 237H446V187H324L296 0H240L268 187H165L138 0H82L110 187H7V237H118L147 428H32V479H155L183 666H239L211 479H314L342 666H398L370 479H471V428ZM306 428H203L174 237H276L306 428Z" />
<glyph unicode="$" glyph-name="dollar" horiz-adv-x="356" d="M142 672V745H216V675Q267 664 297 624T327 525V465H236V526Q236 589 185 589Q162 589 148 575T134 533Q134 510 139 490T155 453T181 417T214 375Q243 342 257 324T291 275T321 214T330 150Q330
86 299 45T216 -8V-80H142V-9Q88 2 58 41T28 141V200H120V141Q120 75 176 75Q203 75 217 91T232 137Q232 178 213 213T148 298Q34 419 34 514Q34 574 62 617T142 672Z" />
<glyph unicode="%" glyph-name="percent" horiz-adv-x="496" d="M202 432Q202 389 177 364T113 338Q75 338 50 363T25 432V584Q25 627 50 652T113 678Q152 678 177 653T202 584V432ZM452 658L82 -20L46 6L416 685L452 658ZM472 80Q472 37 448 12T384 -14Q346 -14
321 11T296 80V233Q296 276 320 301T384 326T447 301T472 233V80ZM143 419V597Q143 610 135 618T113 627Q101 627 93 619T85 597V419Q85 406 93 398T113 389Q126 389 134 397T143 419ZM414 67V246Q414 259 406 267T384 275T363 267T355 246V67Q355 54 363 46T384
38T405 46T414 67Z" />
<glyph unicode="&amp;" glyph-name="ampersand" horiz-adv-x="475" d="M466 96Q466 43 444 16T380 -12Q334 -12 289 35Q240 -12 171 -12Q107 -12 66 35T25 154Q25 274 134 362Q102 443 102 511Q102 588 139 633T239 678Q296 678 326 639T356 536Q356 432 240 338Q276
221 298 179Q338 253 338 341H416Q415 284 396 218T345 104Q365 76 387 76Q413 76 413 110V152H466V96ZM272 531Q272 587 237 587Q194 587 194 517Q194 475 212 413Q272 466 272 531ZM235 99Q199 156 165 271Q123 231 123 165Q123 124 140 102T190 79Q217 79 235
99Z" />
<glyph unicode="&apos;" glyph-name="quotesingle" horiz-adv-x="145" d="M149 666L79 469H28L63 666H149Z" />
<glyph unicode="(" glyph-name="parenleft" horiz-adv-x="268" d="M267 -122L241 -148Q70 6 70 304T241 756L267 730Q211 659 184 560T157 304T184 49T267 -122Z" />
<glyph unicode=")" glyph-name="parenright" horiz-adv-x="268" d="M198 602T198 304T28 -148L2 -122Q57 -50 84 49T112 304T85 558T2 730L28 756Q198 602 198 304Z" />
<glyph unicode="*" glyph-name="asterisk" horiz-adv-x="262" d="M240 503L226 478Q222 471 210 476Q173 499 147 523Q156 480 156 444Q156 432 147 432H117Q108 432 108 444Q108 483 117 523Q83 492 53 476Q43 469 38 477L23 503Q19 510 29 517Q66 537 101 548Q57
562 29 580Q18 586 22 594L37 620Q42 628 53 621Q85 602 116 575Q106 616 106 653Q106 665 116 665H146Q155 665 155 653Q155 614 146 575Q182 606 210 622Q221 628 225 620L240 594Q245 585 234 581Q199 561 162 549Q200 537 234 518Q244 512 240 503Z" />
<glyph unicode="+" glyph-name="plus" horiz-adv-x="302" d="M273 304H187V212H115V304H29V376H115V467H187V376H273V304Z" />
<glyph unicode="," glyph-name="comma" horiz-adv-x="148" d="M115 11Q115 -32 92 -59T26 -86V-60Q71 -60 71 0H32V118H115V11Z" />
<glyph unicode="-" glyph-name="hyphen" horiz-adv-x="216" d="M197 271H19V346H197V271Z" />
<glyph unicode="." glyph-name="period" horiz-adv-x="148" d="M115 0H32V118H115V0Z" />
<glyph unicode="/" glyph-name="slash" horiz-adv-x="233" d="M236 729L55 -64H-4L177 729H236Z" />
<glyph unicode="0" glyph-name="zero" horiz-adv-x="369" d="M334 140Q334 72 293 30T184 -12Q117 -12 76 30T34 140V526Q34 594 75 636T184 678Q252 678 293 636T334 526V140ZM236 131V535Q236 556 222 570T184 584T147 570T133 535V131Q133 110 147 96T184 82T221
96T236 131Z" />
<glyph unicode="1" glyph-name="one" horiz-adv-x="213" d="M156 0H57V620Q102 620 102 666H156V0Z" />
<glyph unicode="2" glyph-name="two" horiz-adv-x="331" d="M311 520Q311 457 285 400T202 273Q127 158 127 94H306V0H19V29Q19 98 42 159T136 329Q183 394 201 436T219 528Q219 587 168 587Q118 587 118 529V452H29V534Q29 594 65 636T166 678Q241 678 276 635T311 520Z" />
<glyph unicode="3" glyph-name="three" horiz-adv-x="335" d="M308 130Q308 67 268 28T162 -12T61 28T25 127V200H114V135Q114 80 162 80Q211 80 211 131V261Q211 297 173 297H127V376H173Q211 376 211 413V534Q211 586 162 586Q114 586 114 531V465H25V538Q25
597 60 637T162 678T268 639T308 536V433Q308 397 291 372T242 339Q308 316 308 246V130Z" />
<glyph unicode="4" glyph-name="four" horiz-adv-x="331" d="M320 138H275V0H183V138H10V213L192 666H275V223H320V138ZM183 223V439L100 223H183Z" />
<glyph unicode="5" glyph-name="five" horiz-adv-x="336" d="M313 666Q310 614 295 594T247 573H132L123 396Q154 438 216 438Q259 438 285 409T312 332V132Q312 66 272 27T164 -12Q100 -12 65 29T29 127V194H117V135Q117 110 130 95T166 80Q215 80 215 133V316Q215
336 204 348T174 361Q153 361 139 348T121 314L34 326L50 666H313Z" />
<glyph unicode="6" glyph-name="six" horiz-adv-x="353" d="M326 139Q326 71 287 30T180 -12T74 30T34 139V525Q34 594 74 636T182 678Q246 678 283 637T320 538V471H233V531Q233 586 181 586Q131 586 131 531V362Q164 404 223 404Q271 404 298 375T326 297V139ZM230
127V282Q230 328 181 328Q158 328 145 315T131 282V130Q131 108 144 94T180 80Q203 80 216 93T230 127Z" />
<glyph unicode="7" glyph-name="seven" horiz-adv-x="320" d="M311 616Q240 438 206 298T168 0H60Q66 139 108 291T211 570H21V666H311V616Z" />
<glyph unicode="8" glyph-name="eight" horiz-adv-x="359" d="M327 130Q327 66 287 27T179 -12Q112 -12 72 27T32 130V239Q32 310 85 336Q33 362 33 433V536Q33 600 72 639T179 678Q247 678 286 639T326 536V433Q326 362 273 336Q327 309 327 239V130ZM231 414V534Q231
558 217 572T179 586Q157 586 143 572T128 534V414Q128 394 141 380T179 366T217 380T231 414ZM231 132V257Q231 278 218 291T179 305Q155 305 142 291T128 257V132Q128 108 142 94T179 80Q202 80 216 94T231 132Z" />
<glyph unicode="9" glyph-name="nine" horiz-adv-x="360" d="M326 139Q326 71 285 30T176 -12Q110 -12 72 28T34 126V188H121V135Q121 80 176 80Q229 80 229 134V296Q196 254 139 254Q90 254 62 285T33 364V527Q33 595 72 636T179 678Q247 678 286 636T326 526V139ZM229
375V537Q229 558 216 572T179 586Q156 586 143 573T129 539V375Q129 355 142 342T179 329Q202 329 215 342T229 375Z" />
<glyph unicode=":" glyph-name="colon" horiz-adv-x="148" d="M115 315H32V433H115V315ZM115 0H32V118H115V0Z" />
<glyph unicode=";" glyph-name="semicolon" horiz-adv-x="148" d="M115 315H32V433H115V315ZM115 11Q115 -32 92 -59T26 -86V-60Q71 -60 71 0H32V118H115V11Z" />
<glyph unicode="&lt;" glyph-name="less" horiz-adv-x="423" d="M352 125L51 322V345L352 541V452L172 334L352 214V125Z" />
<glyph unicode="=" glyph-name="equal" horiz-adv-x="288" d="M266 375H21V450H266V375ZM266 229H21V305H266V229Z" />
<glyph unicode="&gt;" glyph-name="greater" horiz-adv-x="423" d="M372 322L71 126V215L251 333L71 452V541L372 344V322Z" />
<glyph unicode="?" glyph-name="question" horiz-adv-x="309" d="M294 524Q294 419 211 315Q168 260 168 185H99Q99 240 113 281T167 398Q199 459 199 515Q199 553 188 569T151 586Q103 586 103 525V454H16V533Q16 598 50 638T151 678Q224 678 259 636T294 524ZM173
0H92V109H173V0Z" />
<glyph unicode="@" glyph-name="at" horiz-adv-x="530" d="M510 330Q510 250 472 193T367 136Q333 136 315 155T297 208Q284 178 261 161T213 144Q181 144 161 169T140 238Q140 304 179 364T273 424Q321 424 326 376L339 418H403L353 245Q334 177 381 177Q418
177 442 219T466 331Q466 426 412 484T274 543Q184 543 125 468T66 282Q66 170 124 99T274 28Q359 28 414 83L439 53Q374 -12 274 -12Q166 -12 94 69T21 282Q21 412 94 498T274 584Q333 584 379 561T453 500T495 419T510 330ZM314 339Q314 380 285 380Q252 380
228 334T203 242Q203 192 237 192Q275 192 293 259L314 339Z" />
<glyph unicode="A" glyph-name="A" horiz-adv-x="347" d="M343 0H235L218 130H121L101 0H4L115 666H232L343 0ZM206 219L173 491L134 219H206Z" />
<glyph unicode="B" glyph-name="B" horiz-adv-x="367" d="M339 129Q339 64 304 32T211 0H37V666H209Q267 666 302 634T337 537V440Q337 360 271 340Q339 318 339 240V129ZM235 423V532Q235 575 198 575H144V377H194Q235 377 235 423ZM236 134V249Q236 296 195
296H144V91H200Q236 91 236 134Z" />
<glyph unicode="C" glyph-name="C" horiz-adv-x="365" d="M342 141Q342 72 303 30T191 -12T75 33T30 147V519Q30 588 74 633T191 678T302 636T342 525V429H248V527Q248 552 234 567T193 582T152 567T138 528V138Q138 114 152 99T193 84T234 99T248 139V238H342V141Z" />
<glyph unicode="D" glyph-name="D" horiz-adv-x="382" d="M351 155Q351 80 311 40T199 0H37V666H199Q271 666 311 624T351 507V155ZM245 157V508Q245 571 192 571H143V94H192Q245 94 245 157Z" />
<glyph unicode="E" glyph-name="E" horiz-adv-x="323" d="M303 0H37V666H303V572H143V388H254V300H143V97H303V0Z" />
<glyph unicode="F" glyph-name="F" horiz-adv-x="308" d="M296 574H143V382H258V291H143V0H37V666H296V574Z" />
<glyph unicode="G" glyph-name="G" horiz-adv-x="375" d="M348 0H291L275 45Q248 -12 173 -12Q108 -12 69 30T30 141V525Q30 589 74 633T190 678Q261 678 302 635T343 525V436H243V531Q243 553 230 567T190 582Q165 582 151 567T137 530V134Q137 111 151 96T191
81Q217 81 231 96T245 134V253H193V333H348V0Z" />
<glyph unicode="H" glyph-name="H" horiz-adv-x="398" d="M361 0H255V280H143V0H37V666H143V377H255V666H361V0Z" />
<glyph unicode="I" glyph-name="I" horiz-adv-x="181" d="M143 0H37V666H143V0Z" />
<glyph unicode="J" glyph-name="J" horiz-adv-x="350" d="M316 142Q316 72 276 30T166 -12Q97 -12 57 29T16 138V265H117V136Q117 84 164 84Q210 84 210 136V666H316V142Z" />
<glyph unicode="K" glyph-name="K" horiz-adv-x="369" d="M362 0H253L179 277L143 181V0H37V666H143V353L253 666H358L251 383L362 0Z" />
<glyph unicode="L" glyph-name="L" horiz-adv-x="307" d="M296 0H37V666H143V96H296V0Z" />
<glyph unicode="M" glyph-name="M" horiz-adv-x="510" d="M473 0H373V495L352 355L290 0H210L151 355L131 495V0H37V666H180L238 329L256 200L275 329L332 666H473V0Z" />
<glyph unicode="N" glyph-name="N" horiz-adv-x="400" d="M363 0H281L169 302L132 404V0H36V666H130L234 361L268 258V666H363V0Z" />
<glyph unicode="O" glyph-name="O" horiz-adv-x="380" d="M349 146Q349 76 306 32T190 -12T75 32T31 146V520Q31 590 75 634T190 678T305 634T349 520V146ZM242 138V528Q242 552 228 567T190 582T152 567T138 528V138Q138 114 152 99T190 84T228 99T242 138Z" />
<glyph unicode="P" glyph-name="P" horiz-adv-x="357" d="M337 397Q337 330 302 297T207 263H143V0H37V666H207Q267 666 302 632T337 531V397ZM234 392V531Q234 575 198 575H143V348H198Q234 348 234 392Z" />
<glyph unicode="Q" glyph-name="Q" horiz-adv-x="381" d="M382 0Q364 -12 333 -12Q295 -12 273 12Q236 -12 186 -12Q117 -12 74 32T31 144V522Q31 590 75 634T190 678T305 634T349 522V143Q349 106 335 80Q348 67 382 67V0ZM241 162V531Q241 553 228 567T190 582T152
568T138 531V135Q138 113 152 99T190 84Q209 84 220 92L195 115L241 162Z" />
<glyph unicode="R" glyph-name="R" horiz-adv-x="372" d="M360 -3H295Q238 -3 238 89V232Q238 253 227 267T195 281H143V0H37V666H207Q266 666 302 633T338 535V417Q338 346 275 323Q340 300 340 231V95Q340 53 360 27V-3ZM234 411V532Q234 575 198 575H143V364H194Q234
364 234 411Z" />
<glyph unicode="S" glyph-name="S" horiz-adv-x="353" d="M332 152Q332 75 288 32T176 -12Q104 -12 62 29T20 141V200H117V143Q117 77 173 77T229 137Q229 178 209 214T144 297Q25 416 25 515Q25 586 65 632T180 678Q246 678 286 636T327 525V465H231V525Q231
554 218 570T180 587Q156 587 142 573T128 533Q128 488 147 458T219 370Q332 254 332 152Z" />
<glyph unicode="T" glyph-name="T" horiz-adv-x="327" d="M318 569H217V0H111V569H8V666H318V569Z" />
<glyph unicode="U" glyph-name="U" horiz-adv-x="382" d="M347 138Q347 71 304 30T192 -12T80 29T35 138V666H142V136Q142 83 192 83Q244 83 244 136V666H347V138Z" />
<glyph unicode="V" glyph-name="V" horiz-adv-x="354" d="M350 666L228 0H125L5 666H114L179 200L248 666H350Z" />
<glyph unicode="W" glyph-name="W" horiz-adv-x="513" d="M511 666L405 0H311L256 396L195 0H102L5 666H110L158 221L221 666H303L359 221L413 666H511Z" />
<glyph unicode="X" glyph-name="X" horiz-adv-x="359" d="M351 0H242L177 232L107 0H4L118 333L11 666H121L181 429L249 666H351L241 345L351 0Z" />
<glyph unicode="Y" glyph-name="Y" horiz-adv-x="349" d="M352 666L225 268V0H119V268L-1 666H107L178 387L247 666H352Z" />
<glyph unicode="Z" glyph-name="Z" horiz-adv-x="328" d="M314 629L135 96H306V0H11V37L192 571H22V666H314V629Z" />
<glyph unicode="[" glyph-name="bracketleft" horiz-adv-x="246" d="M251 -133H80V741H251V677H151V-69H251V-133Z" />
<glyph unicode="\" glyph-name="backslash" horiz-adv-x="235" d="M238 -64H180L-2 729H57L238 -64Z" />
<glyph unicode="]" glyph-name="bracketright" horiz-adv-x="246" d="M168 -133H-3V-69H98V677H-3V741H168V-133Z" />
<glyph unicode="^" glyph-name="asciicircum" horiz-adv-x="241" d="M231 548Q210 541 192 541Q133 541 118 612Q103 541 43 541Q30 541 9 548V574Q33 574 54 597T87 666H153Q164 621 185 598T231 574V548Z" />
<glyph unicode="_" glyph-name="underscore" horiz-adv-x="298" d="M298 -76H0V0H298V-76Z" />
<glyph unicode="`" glyph-name="grave" horiz-adv-x="156" d="M132 535H81L11 667H97L132 535Z" />
<glyph unicode="a" glyph-name="a" horiz-adv-x="301" d="M284 -8H263Q212 -8 198 44Q170 -8 112 -8Q69 -8 44 23T18 109V132Q18 193 59 230T178 296V370Q178 408 145 408Q113 408 113 368V326H32V364Q32 419 62 453T149 487T235 452T264 357V83Q264 60 284 59V-8ZM178
112V228Q103 202 103 145V107Q103 65 136 65Q154 65 166 78T178 112Z" />
<glyph unicode="b" glyph-name="b" d="M285 105Q285 55 261 24T193 -8Q134 -8 111 47L102 0H34V666H123V433Q149 487 202 487Q240 487 262 456T285 377V105ZM198 116V360Q198 408 161 408Q144 408 134 396T123 362V115Q123 94 133 82T160 69Q177 69 187 81T198 116Z" />
<glyph unicode="c" glyph-name="c" horiz-adv-x="291" d="M269 129Q269 65 238 29T152 -8T63 29T29 129V349Q29 411 63 449T152 487T238 450T269 350V304H194V364Q194 385 184 397T155 409T127 397T116 362V116Q116 70 155 70Q173 70 183 82T194 115V174H269V129Z" />
<glyph unicode="d" glyph-name="d" d="M280 0H209L203 47Q180 -8 122 -8Q79 -8 54 23T29 105V374Q29 423 53 455T116 487Q163 487 191 445V666H280V0ZM191 115V363Q191 384 181 396T154 409Q116 409 116 361V116Q116 94 126 82T154 69Q170 69 180 81T191 115Z" />
<glyph unicode="e" glyph-name="e" horiz-adv-x="298" d="M272 127Q272 66 240 29T153 -8T64 29T29 128V351Q29 411 64 449T153 487T239 450T272 351V228H116V114Q116 70 154 70T192 114V173H272V127ZM191 279V364Q191 409 154 409Q136 409 126 397T116 364V279H191Z" />
<glyph unicode="f" glyph-name="f" horiz-adv-x="208" d="M200 399H148V0H58V399H14V477H58V523Q58 666 179 666H203V591H189Q145 591 145 541V477H200V399Z" />
<glyph unicode="g" glyph-name="g" horiz-adv-x="306" d="M311 493Q311 466 299 451T268 436Q255 436 241 443Q276 406 276 358V296Q276 240 242 204T153 168Q136 168 128 171Q115 171 107 161T98 138Q98 105 163 105T260 76T293 -6V-44Q293 -103 257 -137T157
-172Q97 -172 59 -142T21 -59V-24Q21 28 71 48Q49 56 37 74T24 115Q24 140 42 161T86 187Q59 198 45 229T31 300V359Q31 414 66 450T153 487Q167 487 182 484T199 481Q243 481 243 529H308Q311 512 311 493ZM192 282V369Q192 388 182 400T153 412T125 400T115 369V282Q115
263 125 251T153 239T181 251T192 282ZM213 -52V-10Q213 32 158 32Q104 32 104 -10V-53Q104 -72 118 -84T158 -96Q185 -96 199 -84T213 -52Z" />
<glyph unicode="h" glyph-name="h" horiz-adv-x="319" d="M287 0H198V367Q198 386 189 397T163 409Q146 409 135 392T123 355V0H34V666H123V426Q148 487 205 487Q243 487 265 459T287 382V0Z" />
<glyph unicode="i" glyph-name="i" horiz-adv-x="158" d="M121 541H36V634H121V541ZM123 0H34V480H123V0Z" />
<glyph unicode="j" glyph-name="j" horiz-adv-x="157" d="M121 541H36V634H121V541ZM123 -29Q123 -97 96 -131T6 -166H-17V-92H-7Q16 -92 25 -82T34 -49V480H123V-29Z" />
<glyph unicode="k" glyph-name="k" horiz-adv-x="305" d="M297 0H209L154 196L124 128V0H34V666H124V254L203 481H289L212 271L297 0Z" />
<glyph unicode="l" glyph-name="l" horiz-adv-x="158" d="M123 0H34V666H123V0Z" />
<glyph unicode="m" glyph-name="m" horiz-adv-x="463" d="M431 0H342V367Q342 406 312 406Q296 406 287 389T278 352V0H188V370Q188 387 180 398T159 409Q142 409 133 392T123 355V0H34V480H113L120 418Q141 487 198 487Q252 487 270 420Q292 487 350 487Q388
487 409 459T431 382V0Z" />
<glyph unicode="n" glyph-name="n" horiz-adv-x="320" d="M287 0H198V367Q198 386 189 397T164 409Q146 409 135 392T123 355V0H34V480H113L118 417Q142 487 202 487Q242 487 264 459T287 382V0Z" />
<glyph unicode="o" glyph-name="o" horiz-adv-x="307" d="M277 129Q277 66 243 29T154 -8Q98 -8 64 29T29 129V349Q29 411 64 449T154 487T243 449T277 349V129ZM191 112V366Q191 385 181 397T154 409Q136 409 127 397T117 366V112Q117 70 154 70Q171 70 181 81T191 112Z" />
<glyph unicode="p" glyph-name="p" d="M285 101Q285 55 261 24T200 -7Q153 -7 123 35V-163H34V480H105L111 433Q136 488 193 488Q236 488 260 457T285 375V101ZM197 119V363Q197 411 161 411Q145 411 134 399T123 365V117Q123 97 133 85T161 72Q197 72 197 119Z" />
<glyph unicode="q" glyph-name="q" d="M280 -164H191V44Q167 -8 111 -8Q76 -8 53 22T29 99V373Q29 424 54 455T122 487Q180 487 203 431L212 478H280V-164ZM191 116V363Q191 384 181 396T154 409Q137 409 127 397T116 362V118Q116 70 154 70Q171 70 181 82T191 116Z" />
<glyph unicode="r" glyph-name="r" horiz-adv-x="229" d="M217 386Q123 397 123 330V0H34V480H111L117 412Q141 496 217 485V386Z" />
<glyph unicode="s" glyph-name="s" horiz-adv-x="282" d="M264 121Q264 65 233 29T144 -8Q85 -8 53 26T21 122V151H98V115Q98 67 140 67T182 109Q182 125 180 136T163 163T143 185T108 218Q25 280 25 361Q25 419 58 453T143 487Q199 487 229 453T260 361V331H186V368Q186
409 145 409Q108 409 108 371Q108 346 122 326T171 276Q216 241 240 207T264 121Z" />
<glyph unicode="t" glyph-name="t" horiz-adv-x="204" d="M195 399H143V139Q143 51 162 0H73Q53 51 53 139V399H9V477H58V556L143 581V477H195V399Z" />
<glyph unicode="u" glyph-name="u" horiz-adv-x="321" d="M286 0H209L204 58Q180 -8 119 -8Q78 -8 56 20T33 97V480H122V111Q122 92 132 81T157 69Q174 69 185 86T197 123V480H286V0Z" />
<glyph unicode="v" glyph-name="v" horiz-adv-x="280" d="M272 480L179 0H100L7 480H94L130 242L142 147L154 242L188 480H272Z" />
<glyph unicode="w" glyph-name="w" horiz-adv-x="418" d="M412 480L327 0H252L221 190L209 289L196 190L165 0H90L7 480H94L122 247L133 143L144 247L176 480H249L278 247L290 143L301 247L331 480H412Z" />
<glyph unicode="x" glyph-name="x" horiz-adv-x="286" d="M279 0H188L142 159L95 0H6L93 237L6 480H96L143 319L190 480H279L191 246L279 0Z" />
<glyph unicode="y" glyph-name="y" horiz-adv-x="279" d="M272 480L175 -29Q160 -104 136 -135T50 -166H28V-92H46Q68 -92 76 -83T91 -48L99 7L7 480H94L130 244L142 148L153 244L188 480H272Z" />
<glyph unicode="z" glyph-name="z" horiz-adv-x="258" d="M242 439L112 84H237V0H14V41L146 399H23V480H242V439Z" />
<glyph unicode="{" glyph-name="braceleft" horiz-adv-x="271" d="M235 -133H202Q137 -133 102 -95T67 3Q67 46 85 94T122 179T140 235Q140 258 127 269T82 280H50V329H82Q114 329 127 339T140 373Q140 391 104 470T67 605Q67 664 102 702T202 741H235V684H209Q179
684 164 663T149 605Q149 565 177 495T206 399Q206 362 188 340T126 307Q169 298 187 276T206 215Q206 191 178 117T149 3Q149 -32 164 -53T209 -75H235V-133Z" />
<glyph unicode="|" glyph-name="bar" horiz-adv-x="131" d="M94 -64H37V729H94V-64Z" />
<glyph unicode="}" glyph-name="braceright" horiz-adv-x="271" d="M221 280H189Q158 280 145 269T132 235Q132 217 150 180T186 94T204 3Q204 -56 170 -94T69 -133H37V-75H63Q122 -75 122 3Q122 43 94 117T66 215Q66 253 84 275T145 307Q66 326 66 399Q66 424
94 494T122 605Q122 684 63 684H37V741H69Q135 741 169 703T204 605Q204 549 168 470T132 373Q132 350 145 340T189 329H221V280Z" />
<glyph unicode="~" glyph-name="asciitilde" horiz-adv-x="242" d="M233 350Q233 315 217 296T170 276Q148 276 116 298T74 321Q57 321 57 301V278H21Q10 293 10 315Q10 388 71 388Q93 388 126 366T168 344Q186 344 186 364V388H222Q233 369 233 350Z" />
</font>
</defs>
</svg>
