<?xml version="1.0" standalone="no"?>
<!DOCTYPE svg PUBLIC "-//W3C//DTD SVG 1.1//EN" "http://www.w3.org/Graphics/SVG/1.1/DTD/svg11.dtd" >
<svg xmlns="http://www.w3.org/2000/svg">
<metadata>
This is a custom SVG webfont generated by Font Squirrel.
Copyright   : HTF Knockout  19947 The Hoefler Type Foundry Inc httpwwwtypographycom
</metadata>
<defs>
<font id="webfontEVwm6Yqh" horiz-adv-x="550" >
<font-face units-per-em="2048" ascent="1638" descent="-410" />
<missing-glyph horiz-adv-x="235" />
<glyph unicode=" "  horiz-adv-x="235" />
<glyph unicode="&#x09;" horiz-adv-x="235" />
<glyph unicode="&#xa0;" horiz-adv-x="235" />
<glyph unicode="!" horiz-adv-x="284" d="M211 772l-47 -430h-41l-49 430v592h137v-592zM205 0h-125v199h125v-199z" />
<glyph unicode="&#x22;" horiz-adv-x="362" d="M371 1364l-107 -381h-76l72 381h111zM193 1364l-91 -381h-73l53 381h111z" />
<glyph unicode="#" horiz-adv-x="774" d="M768 881h-184l-54 -398h193v-82h-205l-53 -401h-86l53 401h-166l-53 -401h-86l53 401h-176v82h189l51 398h-193v82h205l53 401h86l-51 -401h166l51 401h86l-51 -401h172v-82zM498 881h-168l-51 -398h165z" />
<glyph unicode="$" horiz-adv-x="620" d="M250 1374v142h123v-136q88 -14 138 -86.5t50 -179.5v-162h-133v152q0 150 -104 149q-111 0 -111 -129q0 -68 21.5 -135t47 -112.5t83.5 -137.5q66 -92 100.5 -151.5t66 -146.5t31.5 -169q0 -125 -53 -196.5t-137 -89.5v-140h-123v140q-88 18 -139.5 88.5t-51.5 175.5v153 h138v-149q0 -70 30.5 -110t81.5 -40q57 0 88 38t31 104q0 94 -38 180t-116 201q-199 270 -198 458q0 244 174 289z" />
<glyph unicode="%" horiz-adv-x="831" d="M336 870q0 -80 -41 -128t-104.5 -48t-103.5 48.5t-40 127.5v340q0 80 40 127t103.5 47t104.5 -47t41 -127v-340zM778 1360l-665 -1401l-54 41l664 1401zM788 150q0 -80 -39.5 -128.5t-103 -48.5t-103.5 48.5t-40 128.5v339q0 82 40 129.5t103.5 47.5t103 -47.5 t39.5 -129.5v-339zM244 842v399q0 23 -15.5 38t-38 15t-37 -15t-14.5 -38v-399q0 -25 14.5 -40.5t37 -15.5t38 15.5t15.5 40.5zM696 121v399q0 23 -14 38t-36.5 15t-37 -15t-14.5 -38v-399q0 -23 14.5 -39t37 -16t36.5 16t14 39z" />
<glyph unicode="&#x26;" horiz-adv-x="788" d="M778 170q0 -190 -143 -190q-92 0 -156 92q-78 -92 -192 -92q-111 0 -178.5 90t-67.5 231q0 133 50 232.5t153 201.5q-59 190 -60 340q0 135 60.5 222t161.5 87q96 0 143 -77.5t47 -202.5q0 -203 -205 -412q49 -287 94 -393q98 207 99 393h116q-4 -117 -45 -268.5 t-102 -249.5q31 -63 82 -63q49 0 49 63v121h94v-125zM469 1094q0 147 -70 147q-84 0 -84 -164q0 -80 37 -260q57 61 87 137.5t30 139.5zM406 162q-70 133 -127 428q-98 -119 -99 -264q0 -106 37 -159.5t100 -53.5q58 0 89 49z" />
<glyph unicode="'" horiz-adv-x="272" d="M258 1364l-123 -381h-82l72 381h133z" />
<glyph unicode="(" horiz-adv-x="460" d="M446 -233l-36 -35q-279 295 -279 897q0 328 71.5 540.5t207.5 358.5l36 -35q-92 -127 -139 -322.5t-47 -541.5q0 -344 47 -540.5t139 -321.5z" />
<glyph unicode=")" horiz-adv-x="460" d="M330 629q0 -602 -279 -897l-39 35q92 125 139.5 320.5t47.5 541.5t-46.5 541.5t-140.5 322.5l39 35q135 -145 207 -358t72 -541z" />
<glyph unicode="*" horiz-adv-x="454" d="M422 1059l-23 -39q-8 -10 -28 -2q-63 39 -119 86q14 -61 14 -146q0 -23 -14 -22h-47q-14 0 -15 22q0 68 15 146q-61 -55 -119 -86q-18 -8 -27 2l-22 39q-6 10 12 24q82 43 133 60q-51 16 -135 61q-16 12 -12 23l22 41q8 10 29 2q74 -47 117 -84q-14 90 -15 145 q0 23 15 23h51q14 0 14 -23q0 -74 -14 -145q49 45 119 84q18 12 26 -2l23 -39q8 -12 -12 -23q-63 -39 -134 -61q70 -25 134 -62q18 -8 12 -24z" />
<glyph unicode="+" horiz-adv-x="540" d="M479 635h-151v-168h-113v168h-154v113h154v165h113v-165h151v-113z" />
<glyph unicode="," horiz-adv-x="247" d="M186 20q0 -176 -135 -176v43q68 0 68 113h-56v205h123v-185z" />
<glyph unicode="-" horiz-adv-x="358" d="M330 584h-301v123h301v-123z" />
<glyph unicode="." horiz-adv-x="247" d="M186 0h-123v205h123v-205z" />
<glyph unicode="/" horiz-adv-x="419" d="M438 1493l-372 -1624h-93l375 1624h90z" />
<glyph unicode="0" horiz-adv-x="643" d="M571 250q0 -121 -68.5 -195.5t-180.5 -74.5q-111 0 -180.5 74.5t-69.5 195.5v864q0 121 69.5 195.5t180.5 74.5q113 0 181 -74.5t68 -195.5v-864zM432 221v922q0 45 -31.5 76.5t-79 31.5t-79 -31.5t-31.5 -76.5v-922q0 -45 30.5 -76.5t80 -31.5t80 31.5t30.5 76.5z" />
<glyph unicode="1" horiz-adv-x="339" d="M240 0h-140v1290q72 0 72 74h68v-1364z" />
<glyph unicode="2" horiz-adv-x="546" d="M516 1083q0 -238 -180 -508q-160 -299 -160 -438h328v-137h-473v51q0 109 41 230.5t172 386.5q80 143 112.5 238t32.5 208q0 139 -110 139q-49 0 -79 -32.5t-30 -90.5v-194h-119v184q0 111 59.5 187.5t165.5 76.5q240 0 240 -301z" />
<glyph unicode="3" horiz-adv-x="567" d="M510 225q0 -106 -62.5 -175.5t-166.5 -69.5q-113 0 -170.5 66.5t-57.5 174.5v174h121v-172q0 -109 98 -108q100 0 101 102v346q0 68 -72 68h-88v119h88q72 0 72 67v324q0 109 -101 108q-98 0 -98 -112v-170h-121v174q0 111 55.5 177t172.5 66q104 0 166.5 -68.5 t62.5 -176.5v-299q0 -111 -107 -148q106 -37 107 -143v-324z" />
<glyph unicode="4" horiz-adv-x="544" d="M526 283h-80v-283h-129v283h-299v110l308 971h120v-956h80v-125zM317 408v553l-165 -553h165z" />
<glyph unicode="5" horiz-adv-x="567" d="M530 1364q-2 -88 -26.5 -112.5t-85.5 -24.5h-207l-18 -420q49 80 165 80q74 0 119 -54.5t45 -138.5v-465q0 -113 -64.5 -181t-174.5 -68q-104 0 -160.5 69.5t-56.5 171.5v166h118v-160q0 -51 27 -81.5t72 -30.5q47 0 74.5 29.5t27.5 80.5v457q0 45 -22.5 70.5t-61.5 25.5 q-47 0 -76.5 -33.5t-38.5 -85.5l-125 19l29 686h440z" />
<glyph unicode="6" horiz-adv-x="608" d="M553 238q0 -115 -66.5 -186.5t-177 -71.5t-176 71.5t-65.5 186.5v882q0 119 66.5 191.5t176.5 72.5q106 0 166 -71.5t60 -171.5v-168h-119v164q0 113 -109 112q-51 0 -78.5 -30.5t-27.5 -83.5v-387q66 80 174 79q80 0 128 -54t48 -138v-397zM416 215v401q0 43 -27 71 t-78 28t-79.5 -29t-28.5 -70v-395q0 -47 28.5 -76.5t77.5 -29.5t78 28.5t29 71.5z" />
<glyph unicode="7" horiz-adv-x="532" d="M516 1278q-147 -469 -206.5 -731t-67.5 -547h-152q35 508 283 1227h-338v137h481v-86z" />
<glyph unicode="8" horiz-adv-x="610" d="M547 225q0 -109 -65.5 -177t-174.5 -68q-111 0 -176 68.5t-65 176.5v287q0 123 92 176q-90 51 -90 176v275q0 109 64.5 177t174.5 68q109 0 173.5 -68.5t64.5 -176.5v-275q0 -123 -90 -176q92 -55 92 -176v-287zM414 840v301q0 51 -29 79.5t-78 28.5t-78.5 -28.5 t-29.5 -79.5v-301q0 -43 27.5 -73t80.5 -30q51 0 79 30t28 73zM416 223v314q0 41 -29 70.5t-80 29.5q-53 0 -81.5 -29.5t-28.5 -70.5v-314q0 -49 30.5 -78.5t79.5 -29.5t79 29.5t30 78.5z" />
<glyph unicode="9" horiz-adv-x="616" d="M549 240q0 -117 -66.5 -188.5t-179.5 -71.5q-106 0 -170.5 68.5t-64.5 170.5v162h120v-156q0 -51 32 -80.5t85 -29.5q109 0 109 110v379q-63 -80 -170 -80q-82 0 -129 55.5t-47 141.5v403q0 115 64.5 187.5t174.5 72.5q113 0 177.5 -72.5t64.5 -189.5v-882zM414 737v406 q0 47 -28 76.5t-79 29.5t-78.5 -27.5t-27.5 -72.5v-412q0 -43 27.5 -70.5t78.5 -27.5q49 0 78 28.5t29 69.5z" />
<glyph unicode=":" horiz-adv-x="247" d="M186 659h-123v207h123v-207zM186 0h-123v205h123v-205z" />
<glyph unicode=";" horiz-adv-x="247" d="M186 659h-123v207h123v-207zM186 20q0 -176 -135 -176v43q68 0 68 113h-56v205h123v-185z" />
<glyph unicode="&#x3c;" horiz-adv-x="782" d="M645 307l-541 355v43l541 352v-144l-352 -229l352 -233v-144z" />
<glyph unicode="=" horiz-adv-x="481" d="M451 752h-420v125h420v-125zM451 506h-420v125h420v-125z" />
<glyph unicode="&#x3e;" horiz-adv-x="782" d="M678 662l-539 -353v144l353 229l-353 233v144l539 -357v-40z" />
<glyph unicode="?" horiz-adv-x="505" d="M483 1090q0 -205 -137 -445q-78 -127 -78 -278h-106q0 98 27.5 188t105.5 260q55 123 55 279q0 86 -23.5 120.5t-76.5 34.5q-102 0 -103 -129v-176h-116v178q0 121 55 191.5t162 70.5q235 1 235 -294zM279 0h-127v199h127v-199z" />
<glyph unicode="@" horiz-adv-x="868" d="M836 606q0 -147 -63.5 -250.5t-170.5 -103.5q-51 0 -82 32.5t-28 92.5q-49 -111 -132 -111q-53 0 -86.5 46t-33.5 132q0 121 63.5 225.5t149.5 104.5q76 0 82 -80l20 74h98l-78 -315q-33 -129 46 -129q61 0 98 79.5t37 208.5q0 174 -86 280.5t-217 106.5 q-141 0 -237.5 -139t-96.5 -346q0 -209 94 -335t240 -126q139 0 223 90l41 -53q-96 -111 -264 -110q-176 0 -293 142t-117 392q0 244 119 402.5t291 158.5q182 0 282.5 -142.5t100.5 -326.5zM516 623q-4 78 -47 77q-51 0 -91 -80.5t-40 -168.5q0 -98 57.5 -98.5t87.5 122.5z " />
<glyph unicode="A" horiz-adv-x="593" d="M575 0h-151l-37 295h-188l-43 -295h-140l207 1364h154zM369 432l-72 608l-80 -608h152z" />
<glyph unicode="B" horiz-adv-x="632" d="M575 246q0 -246 -225 -246h-274v1364h270q225 0 225 -246v-225q0 -160 -114 -197q119 -37 118 -198v-252zM426 866v262q0 96 -80 97h-121v-469h105q96 -1 96 110zM430 236v284q0 51 -25.5 81t-70.5 30h-109v-492h123q82 1 82 97z" />
<glyph unicode="C" horiz-adv-x="624" d="M573 254q0 -121 -66.5 -197.5t-182.5 -76.5q-119 0 -190 78.5t-71 201.5v844q0 121 72 200.5t188.5 79.5t183 -76.5t66.5 -197.5v-223h-129v237q0 53 -30.5 86t-83.5 33q-57 0 -88 -32.5t-31 -84.5v-888q0 -53 30.5 -85t88.5 -32q53 0 83.5 32.5t30.5 86.5v239h129v-225z " />
<glyph unicode="D" horiz-adv-x="655" d="M592 301q0 -301 -250 -301h-266v1364h266q250 0 250 -301v-762zM444 289v784q0 78 -24.5 113t-81.5 35h-113v-1078h113q57 0 81.5 35t24.5 111z" />
<glyph unicode="E" horiz-adv-x="552" d="M510 0h-434v1364h434v-137h-287v-455h207v-133h-207v-502h287v-137z" />
<glyph unicode="F" horiz-adv-x="528" d="M500 1229h-275v-469h215v-133h-215v-627h-149v1364h424v-135z" />
<glyph unicode="G" horiz-adv-x="643" d="M586 0h-64l-39 82q-47 -102 -182 -102q-102 0 -170 74.5t-68 205.5v844q0 121 72 200.5t191 79.5q117 0 182 -76.5t65 -203.5v-184h-135v208q0 49 -29.5 82t-83 33t-84 -33.5t-30.5 -83.5v-888q0 -55 28.5 -90t86.5 -35q55 0 85.5 34.5t30.5 90.5v311h-108v129h252v-678z " />
<glyph unicode="H" horiz-adv-x="677" d="M602 0h-145v608h-232v-608h-149v1364h149v-619h232v619h145v-1364z" />
<glyph unicode="I" horiz-adv-x="301" d="M225 0h-149v1364h149v-1364z" />
<glyph unicode="J" horiz-adv-x="593" d="M524 248q0 -123 -62.5 -195.5t-176.5 -72.5q-113 0 -178.5 70.5t-65.5 191.5v301h139v-307q0 -115 101 -115q98 0 98 115v1128h145v-1116z" />
<glyph unicode="K" horiz-adv-x="622" d="M604 0h-153l-154 606l-74 -229v-377h-147v1364h147v-713l232 713h145l-209 -588z" />
<glyph unicode="L" horiz-adv-x="528" d="M500 0h-424v1364h147v-1223h277v-141z" />
<glyph unicode="M" horiz-adv-x="878" d="M801 0h-137v1032l-33 -237l-125 -795h-137l-129 795l-33 237v-1032h-131v1364h211l123 -844l32 -237l33 237l121 844h205v-1364z" />
<glyph unicode="N" horiz-adv-x="690" d="M618 0h-108l-231 690l-66 219v-909h-139v1364h133l211 -700l61 -222v922h139v-1364z" />
<glyph unicode="O" horiz-adv-x="653" d="M588 264q0 -125 -72 -204.5t-190.5 -79.5t-190.5 79.5t-72 204.5v836q0 125 72 204.5t190.5 79.5t190.5 -79.5t72 -204.5v-836zM442 244v876q0 53 -30.5 88t-86 35t-85 -33.5t-29.5 -89.5v-876q0 -55 29.5 -89t85 -34t86 34t30.5 89z" />
<glyph unicode="P" horiz-adv-x="608" d="M573 825q0 -127 -63.5 -187t-165.5 -60h-121v-578h-147v1364h268q102 0 165.5 -60.5t63.5 -187.5v-291zM424 811v315q0 98 -78 99h-123v-514h123q78 0 78 100z" />
<glyph unicode="Q" horiz-adv-x="653" d="M645 0q-29 -20 -80 -20q-61 0 -96 38q-59 -39 -143 -38q-119 0 -191 79.5t-72 200.5v844q0 121 72 200.5t190.5 79.5t190.5 -79.5t72 -200.5v-854q0 -80 -33 -133q27 -27 90 -27v-90zM440 266v860q0 49 -30.5 83t-84 34t-84 -33.5t-30.5 -83.5v-888q0 -49 29.5 -83 t85.5 -34q39 0 67 18l-47 43z" />
<glyph unicode="R" horiz-adv-x="643" d="M614 -12h-45q-76 0 -106.5 31.5t-30.5 115.5v352q0 113 -94 113h-113v-600h-149v1364h270q227 0 227 -246v-260q0 -160 -114 -194q119 -37 119 -193v-330q0 -53 36 -53v-100zM426 842v286q0 96 -82 97h-119v-496h107q43 0 68.5 30t25.5 83z" />
<glyph unicode="S" horiz-adv-x="606" d="M563 276q0 -152 -76.5 -224t-183.5 -72q-119 0 -189.5 74.5t-70.5 193.5v155h143v-149q0 -68 31 -109t84 -41q119 0 119 140q0 178 -156 379q-209 266 -209 464q0 133 66.5 215t191.5 82q111 0 177.5 -74.5t66.5 -195.5v-162h-139v150q0 150 -109 149q-111 0 -110 -125 q0 -104 37.5 -187t134.5 -210q192 -250 192 -453z" />
<glyph unicode="T" d="M528 1225h-176v-1225h-145v1225h-182v139h503v-139z" />
<glyph unicode="U" horiz-adv-x="655" d="M586 254q0 -125 -73 -199.5t-185.5 -74.5t-185 74.5t-72.5 199.5v1110h147v-1118q0 -127 112.5 -127t112.5 127v1118h144v-1110z" />
<glyph unicode="V" horiz-adv-x="602" d="M584 1364l-211 -1364h-150l-200 1364h153l125 -1042l139 1042h144z" />
<glyph unicode="W" horiz-adv-x="880" d="M862 1364l-180 -1364h-137l-109 885l-121 -885h-139l-153 1364h145l88 -979l133 979h121l115 -979l100 979h137z" />
<glyph unicode="X" horiz-adv-x="606" d="M586 0h-152l-135 528l-141 -528h-144l203 680l-190 684h149l129 -528l135 528h144l-195 -659z" />
<glyph unicode="Y" horiz-adv-x="581" d="M580 1364l-222 -825v-539h-147v539l-211 825h147l146 -635l145 635h142z" />
<glyph unicode="Z" d="M524 1286l-336 -1149h318v-137h-481v78l337 1145h-319v141h481v-78z" />
<glyph unicode="[" horiz-adv-x="401" d="M436 -238h-301v1733h301v-102h-184v-1528h184v-103z" />
<glyph unicode="\" horiz-adv-x="417" d="M436 -131h-90l-375 1624h92z" />
<glyph unicode="]" horiz-adv-x="401" d="M266 -238h-303v103h187v1528h-187v102h303v-1733z" />
<glyph unicode="^" horiz-adv-x="417" d="M406 1159q-35 -10 -68 -10q-109 0 -131 123q-27 -123 -133 -123q-25 0 -60 10v41q43 0 86 42t62 122h96q18 -80 60 -122t88 -42v-41z" />
<glyph unicode="_" horiz-adv-x="532" d="M532 -123h-532v123h532v-123z" />
<glyph unicode="`" horiz-adv-x="272" d="M240 1067h-82l-123 246h133z" />
<glyph unicode="a" horiz-adv-x="518" d="M475 -16h-31q-80 0 -98 88q-51 -88 -139 -88q-78 0 -121 60t-43 165v45q0 201 281 332v155q0 98 -74 99q-43 0 -57.5 -23.5t-14.5 -77.5v-92h-112v101q0 98 50 159.5t138 61.5q92 0 141 -62.5t49 -169.5v-610q0 -45 31 -45v-98zM324 227v236q-78 -29 -121 -83t-43 -112 v-63q0 -102 71 -103q39 0 66 38t27 87z" />
<glyph unicode="b" horiz-adv-x="540" d="M481 186q0 -94 -42 -149t-113 -55q-109 0 -144 116l-14 -98h-100v1364h125v-506q41 111 143 111q70 0 107.5 -55.5t37.5 -147.5v-580zM358 209v528q0 106 -82 107q-84 0 -83 -103v-536q0 -49 23.5 -76t59.5 -27q82 1 82 107z" />
<glyph unicode="c" horiz-adv-x="499" d="M455 231q0 -115 -50.5 -181t-144.5 -66q-90 0 -145.5 68.5t-55.5 180.5v484q0 113 55.5 182.5t145.5 69.5q94 0 144.5 -67.5t50.5 -182.5v-103h-107v125q0 45 -21.5 73t-60.5 28t-61.5 -28t-22.5 -75v-528q0 -98 84 -98q82 0 82 96v123h107v-101z" />
<glyph unicode="d" horiz-adv-x="540" d="M473 0h-102l-13 98q-37 -117 -143 -116q-72 0 -114 55t-42 149v574q0 96 41 152.5t111 56.5q94 0 137 -95v490h125v-1364zM348 205v538q0 47 -22.5 75t-61.5 28q-82 0 -82 -107v-530q0 -106 82 -107q37 0 60.5 28t23.5 75z" />
<glyph unicode="e" horiz-adv-x="507" d="M455 231q0 -115 -51.5 -181t-141.5 -66t-146.5 68.5t-56.5 180.5v484q0 113 56.5 182.5t146.5 69.5t141.5 -69t51.5 -183v-258h-273v-244q0 -106 84 -106q78 0 78 106v119h111v-103zM344 553v180q0 109 -78 109q-84 0 -84 -109v-180h162z" />
<glyph unicode="f" horiz-adv-x="321" d="M309 836h-86v-836h-125v836h-73v118h73v140q0 270 193 270h33v-119h-29q-78 0 -78 -98v-193h92v-118z" />
<glyph unicode="g" horiz-adv-x="518" d="M514 985q0 -41 -23.5 -65.5t-56.5 -24.5q-23 0 -41 10q66 -68 66 -176v-182q0 -104 -55.5 -174t-141.5 -70q-20 0 -45 6q-20 0 -37.5 -21.5t-17.5 -49.5q0 -74 114 -74q102 0 157.5 -52.5t55.5 -148.5v-92q0 -113 -60 -174.5t-165 -61.5q-100 0 -158.5 58.5t-58.5 163.5 v80q0 104 92 141q-37 14 -61.5 51t-24.5 78q0 45 30 83t75 46q-96 41 -97 219v174q0 104 57.5 172t143.5 68q23 0 44.5 -6.5t29.5 -6.5q80 0 80 101h92q6 -45 6 -72zM344 522v226q0 43 -22.5 70.5t-59.5 27.5q-39 0 -61.5 -27.5t-22.5 -70.5v-226q0 -43 22.5 -70.5 t61.5 -27.5q37 0 59.5 27.5t22.5 70.5zM375 -145v100q0 94 -107 94q-53 0 -78.5 -26.5t-25.5 -69.5v-100q0 -41 26.5 -69t77.5 -28t79 29t28 70z" />
<glyph unicode="h" horiz-adv-x="548" d="M485 0h-127v752q0 43 -20.5 69.5t-54.5 26.5q-41 0 -65.5 -38t-24.5 -83v-727h-125v1364h125v-518q41 121 145 121q68 0 107.5 -53.5t39.5 -143.5v-770z" />
<glyph unicode="i" horiz-adv-x="260" d="M186 1090h-112v153h112v-153zM193 0h-125v958h125v-958z" />
<glyph unicode="j" horiz-adv-x="260" d="M186 1090h-112v153h112v-153zM193 -96q0 -131 -44.5 -193.5t-142.5 -62.5h-31v114h17q76 0 76 84v1112h125v-1054z" />
<glyph unicode="k" horiz-adv-x="512" d="M496 0h-129l-105 418l-67 -164v-254h-127v1364h127v-907l167 504h125l-145 -418z" />
<glyph unicode="l" horiz-adv-x="260" d="M193 0h-125v1364h125v-1364z" />
<glyph unicode="m" horiz-adv-x="780" d="M717 0h-123v748q0 94 -64 94q-35 0 -54 -39t-19 -86v-717h-127v754q0 94 -60 94q-37 0 -57 -38t-20 -87v-723h-125v958h112l6 -116q47 125 146 125q86 0 112 -111q41 111 142 111q63 0 97 -48.5t34 -136.5v-782z" />
<glyph unicode="n" d="M485 0h-125v752q0 43 -21.5 69.5t-55.5 26.5q-41 0 -65.5 -38t-24.5 -83v-727h-125v958h110l8 -127q43 135 148 136q72 0 111.5 -53.5t39.5 -143.5v-770z" />
<glyph unicode="o" horiz-adv-x="530" d="M471 233q0 -113 -57.5 -181t-147.5 -68q-92 0 -149.5 68.5t-57.5 180.5v484q0 113 57.5 182.5t149.5 69.5q90 0 147.5 -71t57.5 -181v-484zM348 209v532q0 45 -21.5 73t-60.5 28t-60.5 -28t-21.5 -73v-532q0 -96 82 -96t82 96z" />
<glyph unicode="p" horiz-adv-x="540" d="M481 188q0 -90 -40 -144t-105 -54q-98 0 -143 94v-430h-125v1304h102l12 -100q37 119 146 119q70 0 111.5 -55.5t41.5 -149.5v-584zM358 221v529q0 106 -82 106q-35 0 -59 -27.5t-24 -74.5v-537q0 -47 22.5 -75.5t60.5 -28.5q82 -1 82 108z" />
<glyph unicode="q" horiz-adv-x="540" d="M473 -356h-125v446q-41 -109 -145 -108q-63 0 -103.5 55t-40.5 143v582q0 94 42 149.5t114 55.5q109 0 143 -117l15 100h100v-1306zM348 209v534q0 49 -23.5 77t-60.5 28q-82 0 -82 -107v-530q0 -109 82 -109q84 1 84 107z" />
<glyph unicode="r" horiz-adv-x="382" d="M367 821q-12 1 -24 1q-76 0 -111 -24q-40 -28 -39 -89v-709h-125v958h112l8 -118q43 126 158 126q10 0 21 -1v-144z" />
<glyph unicode="s" horiz-adv-x="481" d="M442 219q0 -104 -55 -169.5t-145 -65.5q-199 0 -199 243v66h107v-84q0 -109 86 -109q90 0 90 99q0 70 -20.5 114.5t-90.5 116.5q-168 145 -168 303q0 106 55.5 171t141.5 65q193 0 192 -240v-72h-104v95q0 90 -84 90q-39 0 -61.5 -25.5t-22.5 -64.5q0 -57 29.5 -107.5 t101.5 -116.5q147 -129 147 -309z" />
<glyph unicode="t" horiz-adv-x="323" d="M303 836h-84v-566q0 -178 27 -270h-119q-35 98 -35 270v566h-74v118h84v154l117 49v-203h84v-118z" />
<glyph unicode="u" d="M483 0h-112l-9 109q-39 -127 -145 -127q-72 0 -111.5 54t-39.5 146v776h124v-761q0 -43 21.5 -69t56.5 -26q39 0 63.5 38t24.5 81v737h127v-958z" />
<glyph unicode="v" horiz-adv-x="471" d="M449 958l-152 -958h-125l-154 958h121l74 -542l23 -213l24 213l70 542h119z" />
<glyph unicode="w" horiz-adv-x="712" d="M690 958l-137 -958h-117l-57 403l-23 209l-24 -209l-60 -403h-116l-138 958h121l58 -526l22 -217l23 217l65 526h101l65 -526l23 -217l20 217l59 526h115z" />
<glyph unicode="x" horiz-adv-x="462" d="M451 0h-129l-95 338l-94 -338h-125l160 477l-160 481h127l96 -340l97 340h123l-160 -481z" />
<glyph unicode="y" horiz-adv-x="471" d="M449 958l-170 -1054q-23 -139 -64 -197.5t-137 -58.5h-31v116h25q39 0 56 19.5t26 62.5l20 144l-156 968h123l68 -536l22 -211l27 211l68 536h123z" />
<glyph unicode="z" horiz-adv-x="432" d="M401 893l-241 -774h229v-119h-364v66l243 774h-229v118h362v-65z" />
<glyph unicode="{" horiz-adv-x="466" d="M418 -238h-51q-121 0 -184.5 76t-63.5 193q0 113 66.5 278.5t66.5 194.5q0 86 -100 86h-64v78h64q100 0 100 86q0 29 -66.5 194.5t-66.5 278.5q0 117 63.5 192.5t184.5 75.5h51v-84h-62q-59 0 -91 -51t-32 -133q0 -80 58.5 -231.5t58.5 -200.5q0 -131 -133 -166 q70 -18 101.5 -57.5t31.5 -108.5q0 -47 -58.5 -199.5t-58.5 -232.5q0 -82 32 -133.5t91 -51.5h62v-84z" />
<glyph unicode="|" horiz-adv-x="241" d="M166 -131h-90v1624h90v-1624z" />
<glyph unicode="}" horiz-adv-x="466" d="M379 590h-64q-100 0 -100 -86q0 -29 67.5 -195t67.5 -278q0 -115 -64.5 -192t-185.5 -77h-49v84h60q59 0 92 51.5t33 133.5q0 80 -59.5 232.5t-59.5 199.5q0 70 31.5 108.5t103.5 57.5q-135 35 -135 166q0 49 59.5 200.5t59.5 231.5q0 82 -33 133t-92 51h-60v84h49 q121 0 185.5 -77t64.5 -191q0 -113 -67.5 -279t-67.5 -194q0 -86 100 -86h64v-78z" />
<glyph unicode="~" horiz-adv-x="407" d="M395 711q0 -123 -98 -123q-35 0 -97.5 42t-76.5 42q-29 0 -29 -33v-51h-61q-18 27 -19 61q0 123 97 123q37 0 100 -41t76 -41q29 0 28 33v51h62q18 -26 18 -63z" />
<glyph unicode="&#xa1;" horiz-adv-x="284" d="M205 760h-125v198h125v-198zM211 -406h-137v592l49 430h41l47 -430v-592z" />
<glyph unicode="&#xa2;" horiz-adv-x="526" d="M223 1174v190h109v-195q63 -20 99 -82.5t36 -152.5v-109h-109v129q0 45 -21.5 72t-58 27t-58 -28t-21.5 -71v-536q0 -94 79.5 -94t79.5 94v123h109v-103q0 -92 -36 -153.5t-99 -81.5v-203h-109v199q-70 18 -110.5 81.5t-40.5 157.5v496q0 90 41.5 155t109.5 85z" />
<glyph unicode="&#xa3;" horiz-adv-x="708" d="M657 231q0 -131 -44 -191t-134 -60q-123 0 -198 88q-53 -88 -144 -88q-68 0 -110.5 39.5t-42.5 105.5q0 68 44 108.5t117 40.5q49 0 105 -36q18 39 32.5 117.5t14.5 140.5q0 72 -21 127h-180v127h146q-66 160 -66 319q0 139 58.5 227t173.5 88q111 0 165 -76.5t54 -197.5 v-141h-121v147q0 125 -100 125q-94 0 -95 -141q0 -152 68 -350h188v-127h-153q8 -35 8 -93q0 -217 -74 -362q57 -57 117 -57q74 0 74 86v206h118v-172zM201 139q-31 37 -66 37q-47 0 -47 -43q0 -45 47 -45q54 0 66 51z" />
<glyph unicode="&#xa4;" horiz-adv-x="604" d="M195 750h276v-132h-276v-372q0 -59 30.5 -92t85.5 -33q119 0 119 129v182h123v-178q0 -129 -64.5 -201.5t-183.5 -72.5q-115 0 -178.5 76.5t-63.5 199.5v852q0 121 65 198.5t177 77.5q119 0 183.5 -72.5t64.5 -201.5v-178h-123v182q0 61 -30.5 95t-88.5 34 q-55 0 -85.5 -33.5t-30.5 -91.5v-368z" />
<glyph unicode="&#xa5;" horiz-adv-x="602" d="M365 565v-133h178v-127h-178v-305h-138v305h-180v127h180v133h-180v123h148l-164 676h145l127 -598l127 598h143l-176 -676h146v-123h-178z" />
<glyph unicode="&#xa7;" horiz-adv-x="606" d="M573 512q0 -205 -139 -315q125 -145 125 -281q0 -115 -66.5 -194.5t-183.5 -79.5q-125 0 -195.5 72.5t-70.5 205.5v74h129v-92q0 -59 34 -94t93 -35q61 0 94 35.5t33 97.5q0 57 -40 116.5t-96 111.5l-112 108q-55 55 -95 128.5t-40 153.5q0 174 145 310 q-125 137 -125 276q0 119 65 196.5t185.5 77.5t181 -78.5t60.5 -199.5v-78h-131v92q0 125 -113 125q-111 0 -110 -123q0 -57 37.5 -115.5t93.5 -110.5l110 -108q55 -55 93 -126.5t38 -149.5zM442 469q0 84 -36.5 145.5t-135.5 137.5q-39 -33 -64.5 -87.5t-25.5 -103.5 q0 -84 34 -142.5t138 -135.5q39 33 64.5 85t25.5 101z" />
<glyph unicode="&#xa8;" horiz-adv-x="331" d="M315 1108h-110v168h110v-168zM129 1108h-113v168h113v-168z" />
<glyph unicode="&#xa9;" horiz-adv-x="1112" d="M1077 639q0 -221 -149.5 -374.5t-372.5 -153.5q-221 0 -370.5 153.5t-149.5 374.5t148.5 375.5t371.5 154.5t372.5 -154.5t149.5 -375.5zM995 639q0 193 -123.5 323t-316.5 130q-190 0 -314 -130.5t-124 -322.5q0 -190 124 -321.5t314 -131.5q193 0 316.5 131.5 t123.5 321.5zM731 528q0 -66 -47 -107.5t-123 -41.5t-126 43t-50 108v218q0 68 49 109.5t127 41.5q76 0 123 -41t47 -108v-33h-80v33q0 35 -23.5 57t-64.5 22q-43 0 -65.5 -23.5t-22.5 -57.5v-218q0 -35 22.5 -57t65.5 -22q41 0 64.5 22.5t23.5 54.5v35h80v-35z" />
<glyph unicode="&#xaa;" horiz-adv-x="460" d="M436 631h-37q-74 0 -82 76q-51 -76 -133 -76q-68 0 -105.5 48t-37.5 132v27q0 168 256 249v113q0 82 -70 82q-39 0 -53 -20.5t-14 -65.5v-55h-99v61q0 82 43 132t125 50q86 0 128 -53t42 -143v-436q0 -35 37 -35v-86zM297 829v166q-156 -39 -156 -149v-35q0 -84 64 -84 q37 0 64.5 29.5t27.5 72.5z" />
<glyph unicode="&#xab;" horiz-adv-x="630" d="M590 0h-68q-35 240 -219 338v117q184 98 219 338h68q0 -270 -158 -398q158 -127 158 -395zM317 0h-67q-35 240 -219 338v117q184 98 219 338h67q0 -270 -157 -398q157 -127 157 -395z" />
<glyph unicode="&#xac;" horiz-adv-x="655" d="M551 545l-84 -84l-141 141l-140 -141l-82 82l140 141l-140 141l84 82l140 -141l139 141l84 -82l-143 -139z" />
<glyph unicode="&#xad;" horiz-adv-x="358" d="M330 584h-301v123h301v-123z" />
<glyph unicode="&#xae;" horiz-adv-x="1112" d="M1077 639q0 -221 -149.5 -374.5t-372.5 -153.5q-221 0 -370.5 153.5t-149.5 374.5t148.5 375.5t371.5 154.5t372.5 -154.5t149.5 -375.5zM995 639q0 193 -123.5 323t-316.5 130q-190 0 -314 -130.5t-124 -322.5q0 -190 124 -321.5t314 -131.5q193 0 316.5 131.5 t123.5 321.5zM758 389h-25q-51 0 -71.5 17.5t-20.5 62.5v68q0 70 -61 69h-91v-211h-90v496h189q141 0 141 -131v-21q0 -88 -80 -102q41 -4 61.5 -33t20.5 -67v-62q0 -20 27 -20v-66zM637 733v29q0 57 -55 57h-93v-151h84q64 -1 64 65z" />
<glyph unicode="&#xaf;" horiz-adv-x="346" d="M334 1128h-322v103h322v-103z" />
<glyph unicode="&#xb0;" horiz-adv-x="405" d="M385 1204q0 -74 -51 -128t-131 -54t-131.5 54t-51.5 128t51.5 127t131.5 53t131 -53t51 -127zM293 1204q0 43 -23.5 71t-66.5 28t-66.5 -28t-23.5 -71q0 -45 23.5 -72.5t66.5 -27.5t66.5 27.5t23.5 72.5z" />
<glyph unicode="&#xb1;" horiz-adv-x="1038" d="M989 0h-940v983h940v-983zM885 100v783h-731v-783h731z" />
<glyph unicode="&#xb2;" horiz-adv-x="546" d="M516 1083q0 -238 -180 -508q-160 -299 -160 -438h328v-137h-473v51q0 109 41 230.5t172 386.5q80 143 112.5 238t32.5 208q0 139 -110 139q-49 0 -79 -32.5t-30 -90.5v-194h-119v184q0 111 59.5 187.5t165.5 76.5q240 0 240 -301z" />
<glyph unicode="&#xb3;" horiz-adv-x="567" d="M510 225q0 -106 -62.5 -175.5t-166.5 -69.5q-113 0 -170.5 66.5t-57.5 174.5v174h121v-172q0 -109 98 -108q100 0 101 102v346q0 68 -72 68h-88v119h88q72 0 72 67v324q0 109 -101 108q-98 0 -98 -112v-170h-121v174q0 111 55.5 177t172.5 66q104 0 166.5 -68.5 t62.5 -176.5v-299q0 -111 -107 -148q106 -37 107 -143v-324z" />
<glyph unicode="&#xb4;" horiz-adv-x="272" d="M258 1313l-123 -246h-82l72 246h133z" />
<glyph unicode="&#xb6;" horiz-adv-x="851" d="M772 -342h-102v1550h-105v-1550h-102v733h-64q-147 0 -243.5 130t-96.5 339v33q0 211 96.5 341t243.5 130h373v-1706zM463 537v671h-31q-59 0 -95 -55t-36 -147v-306q0 -164 131 -163h31z" />
<glyph unicode="&#xb7;" horiz-adv-x="227" d="M176 578h-123v204h123v-204z" />
<glyph unicode="&#xb8;" horiz-adv-x="249" d="M262 -236q0 -53 -37 -91t-94 -38q-23 0 -51 15v45h33q57 0 57 59v23q0 63 -57 63q-35 0 -64 -33l-43 31l123 193l43 -35l-76 -117q12 10 47 10q57 0 88 -35t31 -90z" />
<glyph unicode="&#xb9;" horiz-adv-x="339" d="M240 0h-140v1290q72 0 72 74h68v-1364z" />
<glyph unicode="&#xba;" horiz-adv-x="438" d="M403 840q0 -94 -52 -151.5t-130 -57.5q-80 0 -132 57t-52 152v336q0 94 52 151t132 57q78 0 130 -57t52 -151v-336zM295 815v385q0 37 -20.5 61.5t-53.5 24.5q-37 0 -57.5 -24.5t-20.5 -61.5v-385q0 -37 20.5 -60.5t57.5 -23.5q33 0 53.5 23.5t20.5 60.5z" />
<glyph unicode="&#xbb;" horiz-adv-x="630" d="M596 338q-184 -98 -219 -338h-68q0 268 158 395q-158 127 -158 398h68q35 -240 219 -338v-117zM324 338q-184 -98 -220 -338h-67q0 268 158 395q-158 127 -158 398h67q35 -240 220 -338v-117z" />
<glyph unicode="&#xbc;" horiz-adv-x="1056" d="M1038 283h-80v-283h-129v283h-299v110l308 971h120v-956h80v-125zM829 408v553l-165 -553h165zM973 1464l-1024 -1609l-66 45l1026 1609zM240 0h-140v1290q72 0 72 74h68v-1364z" />
<glyph unicode="&#xbd;" horiz-adv-x="1058" d="M1028 1083q0 -238 -180 -508q-160 -299 -160 -438h328v-137h-473v51q0 109 41 230.5t172 386.5q80 143 112.5 238t32.5 208q0 139 -110 139q-49 0 -79 -32.5t-30 -90.5v-194h-119v184q0 111 59.5 187.5t165.5 76.5q240 0 240 -301zM973 1464l-1024 -1609l-66 45 l1026 1609zM240 0h-140v1290q72 0 72 74h68v-1364z" />
<glyph unicode="&#xbe;" horiz-adv-x="1284" d="M1265 283h-80v-283h-129v283h-299v110l308 971h120v-956h80v-125zM1056 408v553l-165 -553h165zM1200 1464l-1024 -1609l-66 45l1026 1609zM510 225q0 -106 -62.5 -175.5t-166.5 -69.5q-113 0 -170.5 66.5t-57.5 174.5v174h121v-172q0 -109 98 -108q100 0 101 102v346 q0 68 -72 68h-88v119h88q72 0 72 67v324q0 109 -101 108q-98 0 -98 -112v-170h-121v174q0 111 55.5 177t172.5 66q104 0 166.5 -68.5t62.5 -176.5v-299q0 -111 -107 -148q106 -37 107 -143v-324z" />
<glyph unicode="&#xbf;" horiz-adv-x="458" d="M188 958h127v-198h-127v198zM-16 -131q0 205 137 444q78 127 78 279h106q0 -98 -27.5 -188.5t-105.5 -260.5q-55 -123 -55 -278q0 -86 23.5 -121t76.5 -35q102 0 102 129v176h117v-178q0 -121 -55 -191.5t-162 -70.5q-235 0 -235 295z" />
<glyph unicode="&#xc0;" horiz-adv-x="593" d="M575 0h-151l-37 295h-188l-43 -295h-140l207 1364h154zM369 432l-72 608l-80 -608h152zM338 1432h-82l-123 245h133z" />
<glyph unicode="&#xc1;" horiz-adv-x="593" d="M575 0h-151l-37 295h-188l-43 -295h-140l207 1364h154zM369 432l-72 608l-80 -608h152zM459 1677l-123 -245h-82l72 245h133z" />
<glyph unicode="&#xc2;" horiz-adv-x="593" d="M575 0h-151l-37 295h-188l-43 -295h-140l207 1364h154zM369 432l-72 608l-80 -608h152zM498 1446q-41 -12 -68 -12q-109 0 -131 122q-27 -123 -133 -122q-18 0 -60 12v41q45 0 87.5 42t60.5 122h96q18 -80 61.5 -122t86.5 -42v-41z" />
<glyph unicode="&#xc3;" horiz-adv-x="593" d="M575 0h-151l-37 295h-188l-43 -295h-140l207 1364h154zM369 432l-72 608l-80 -608h152zM481 1569q0 -123 -98 -123q-35 0 -97.5 42t-76.5 42q-29 0 -29 -33v-51h-61q-18 29 -19 63q0 121 97 121q37 0 100 -41t76 -41q29 0 28 33v51h62q18 -26 18 -63z" />
<glyph unicode="&#xc4;" horiz-adv-x="593" d="M575 0h-151l-37 295h-188l-43 -295h-140l207 1364h154zM369 432l-72 608l-80 -608h152zM442 1473h-110v167h110v-167zM256 1473h-113v167h113v-167z" />
<glyph unicode="&#xc5;" horiz-adv-x="593" d="M242 1364q-55 35 -56 104q0 51 33 89t82 38t81 -37.5t32 -89.5q0 -66 -56 -104h19l198 -1364h-151l-37 295h-188l-43 -295h-140l207 1364h19zM356 1468q0 74 -55 74q-57 0 -57 -74q0 -72 57 -71q55 -1 55 71zM369 432l-72 608l-80 -608h152z" />
<glyph unicode="&#xc6;" horiz-adv-x="872" d="M829 0h-432v295h-172l-69 -295h-140l314 1364h499v-137h-286v-455h207v-131h-207v-504h286v-137zM397 432v696l-141 -696h141z" />
<glyph unicode="&#xc7;" horiz-adv-x="624" d="M274 -18q-96 16 -153.5 94t-57.5 184v844q0 121 72 200.5t188.5 79.5t183 -76.5t66.5 -197.5v-223h-129v237q0 53 -30.5 86t-83.5 33q-57 0 -88 -32.5t-31 -84.5v-888q0 -53 30.5 -85t88.5 -32q53 0 83.5 32.5t30.5 86.5v239h129v-225q0 -119 -63.5 -194.5t-173.5 -79.5 l-64 -101q12 10 50 10q57 0 86.5 -34.5t29.5 -90.5q0 -53 -36.5 -91t-94.5 -38q-23 0 -51 15v45h33q57 0 57 59v23q0 63 -57 63q-35 0 -64 -33l-41 31z" />
<glyph unicode="&#xc8;" horiz-adv-x="552" d="M510 0h-434v1364h434v-137h-287v-455h207v-133h-207v-502h287v-137zM336 1432h-82l-123 245h133z" />
<glyph unicode="&#xc9;" horiz-adv-x="552" d="M510 0h-434v1364h434v-137h-287v-455h207v-133h-207v-502h287v-137zM434 1677l-123 -245h-82l72 245h133z" />
<glyph unicode="&#xca;" horiz-adv-x="552" d="M510 0h-434v1364h434v-137h-287v-455h207v-133h-207v-502h287v-137zM485 1446q-41 -12 -67 -12q-109 0 -131 122q-27 -123 -133 -122q-18 0 -60 12v41q45 0 87 42t61 122h96q18 -80 61 -122t86 -42v-41z" />
<glyph unicode="&#xcb;" horiz-adv-x="552" d="M510 0h-434v1364h434v-137h-287v-455h207v-133h-207v-502h287v-137zM438 1473h-110v167h110v-167zM252 1473h-113v167h113v-167z" />
<glyph unicode="&#xcc;" horiz-adv-x="301" d="M225 0h-149v1364h149v-1364zM190 1432h-81l-123 245h133z" />
<glyph unicode="&#xcd;" horiz-adv-x="301" d="M225 0h-149v1364h149v-1364zM309 1677l-123 -245h-82l72 245h133z" />
<glyph unicode="&#xce;" horiz-adv-x="301" d="M225 0h-149v1364h149v-1364zM348 1446q-41 -12 -67 -12q-109 0 -131 122q-27 -123 -134 -122q-18 0 -59 12v41q43 0 86 42t61 122h97q18 -80 60 -122t87 -42v-41z" />
<glyph unicode="&#xcf;" horiz-adv-x="301" d="M225 0h-149v1364h149v-1364zM299 1473h-111v167h111v-167zM113 1473h-113v167h113v-167z" />
<glyph unicode="&#xd0;" horiz-adv-x="692" d="M115 616h-121v125h121v623h264q250 0 250 -301v-762q0 -301 -250 -301h-264v616zM260 741h111v-125h-111v-475h115q109 0 108 148v784q0 147 -108 148h-115v-480z" />
<glyph unicode="&#xd1;" horiz-adv-x="690" d="M618 0h-108l-231 690l-66 219v-909h-139v1364h133l211 -700l61 -222v922h139v-1364zM528 1569q0 -123 -98 -123q-35 0 -97.5 42t-76.5 42q-29 0 -29 -33v-51h-61q-18 29 -19 63q0 121 97 121q39 0 100.5 -41t75.5 -41q29 0 29 33v51h61q18 -26 18 -63z" />
<glyph unicode="&#xd2;" horiz-adv-x="653" d="M588 264q0 -125 -72 -204.5t-190.5 -79.5t-190.5 79.5t-72 204.5v836q0 125 72 204.5t190.5 79.5t190.5 -79.5t72 -204.5v-836zM442 244v876q0 53 -30.5 88t-86 35t-85 -33.5t-29.5 -89.5v-876q0 -55 29.5 -89t85 -34t86 34t30.5 89zM365 1432h-82l-123 245h133z" />
<glyph unicode="&#xd3;" horiz-adv-x="653" d="M588 264q0 -125 -72 -204.5t-190.5 -79.5t-190.5 79.5t-72 204.5v836q0 125 72 204.5t190.5 79.5t190.5 -79.5t72 -204.5v-836zM442 244v876q0 53 -30.5 88t-86 35t-85 -33.5t-29.5 -89.5v-876q0 -55 29.5 -89t85 -34t86 34t30.5 89zM487 1677l-122 -245h-82l71 245h133z " />
<glyph unicode="&#xd4;" horiz-adv-x="653" d="M588 264q0 -125 -72 -204.5t-190.5 -79.5t-190.5 79.5t-72 204.5v836q0 125 72 204.5t190.5 79.5t190.5 -79.5t72 -204.5v-836zM442 244v876q0 53 -30.5 88t-86 35t-85 -33.5t-29.5 -89.5v-876q0 -55 29.5 -89t85 -34t86 34t30.5 89zM524 1446q-41 -12 -67 -12 q-109 0 -131 122q-27 -123 -133 -122q-18 0 -60 12v41q43 0 86 42t62 122h96q18 -80 60 -122t87 -42v-41z" />
<glyph unicode="&#xd5;" horiz-adv-x="653" d="M588 264q0 -125 -72 -204.5t-190.5 -79.5t-190.5 79.5t-72 204.5v836q0 125 72 204.5t190.5 79.5t190.5 -79.5t72 -204.5v-836zM442 244v876q0 53 -30.5 88t-86 35t-85 -33.5t-29.5 -89.5v-876q0 -55 29.5 -89t85 -34t86 34t30.5 89zM506 1569q0 -123 -98 -123 q-35 0 -97.5 42t-77.5 42q-29 0 -28 -33v-51h-62q-18 29 -18 63q0 121 96 121q37 0 100.5 -41t75.5 -41q29 0 29 33v51h61q19 -26 19 -63z" />
<glyph unicode="&#xd6;" horiz-adv-x="653" d="M588 264q0 -125 -72 -204.5t-190.5 -79.5t-190.5 79.5t-72 204.5v836q0 125 72 204.5t190.5 79.5t190.5 -79.5t72 -204.5v-836zM442 244v876q0 53 -30.5 88t-86 35t-85 -33.5t-29.5 -89.5v-876q0 -55 29.5 -89t85 -34t86 34t30.5 89zM475 1473h-110v167h110v-167z M289 1473h-113v167h113v-167z" />
<glyph unicode="&#xd7;" horiz-adv-x="655" d="M551 545l-84 -84l-141 141l-140 -141l-82 82l140 141l-140 141l84 82l140 -141l139 141l84 -82l-143 -139z" />
<glyph unicode="&#xd8;" horiz-adv-x="653" d="M102 104q-39 72 -39 160v836q0 125 72 204.5t191 79.5q94 0 157 -51l29 88l78 -30l-41 -131q39 -72 39 -160v-836q0 -125 -72 -204.5t-190 -79.5q-92 0 -160 51l-27 -88l-78 30zM211 455l223 716q-27 72 -108 72q-55 0 -85 -33.5t-30 -89.5v-665zM442 915l-225 -720 q23 -74 109 -74q55 0 85.5 33.5t30.5 89.5v671z" />
<glyph unicode="&#xd9;" horiz-adv-x="655" d="M586 254q0 -125 -73 -199.5t-185.5 -74.5t-185 74.5t-72.5 199.5v1110h147v-1118q0 -127 112.5 -127t112.5 127v1118h144v-1110zM379 1432h-82l-123 245h133z" />
<glyph unicode="&#xda;" horiz-adv-x="655" d="M586 254q0 -125 -73 -199.5t-185.5 -74.5t-185 74.5t-72.5 199.5v1110h147v-1118q0 -127 112.5 -127t112.5 127v1118h144v-1110zM489 1677l-122 -245h-82l71 245h133z" />
<glyph unicode="&#xdb;" horiz-adv-x="655" d="M586 254q0 -125 -73 -199.5t-185.5 -74.5t-185 74.5t-72.5 199.5v1110h147v-1118q0 -127 112.5 -127t112.5 127v1118h144v-1110zM530 1446q-41 -12 -67 -12q-109 0 -131 122q-27 -123 -133 -122q-18 0 -60 12v41q45 0 87 42t61 122h96q18 -80 61 -122t86 -42v-41z" />
<glyph unicode="&#xdc;" horiz-adv-x="655" d="M586 254q0 -125 -73 -199.5t-185.5 -74.5t-185 74.5t-72.5 199.5v1110h147v-1118q0 -127 112.5 -127t112.5 127v1118h144v-1110zM481 1473h-110v167h110v-167zM295 1473h-113v167h113v-167z" />
<glyph unicode="&#xdd;" horiz-adv-x="581" d="M580 1364l-222 -825v-539h-147v539l-211 825h147l146 -635l145 635h142zM459 1677l-123 -245h-82l72 245h133z" />
<glyph unicode="&#xde;" horiz-adv-x="608" d="M573 571q0 -127 -62 -187t-165 -60h-121v-324h-149v1364h149v-252h121q102 0 164.5 -60.5t62.5 -189.5v-291zM426 557v313q0 102 -80 103h-121v-514h121q80 0 80 98z" />
<glyph unicode="&#xdf;" horiz-adv-x="548" d="M489 166q0 -86 -47 -134t-123 -48q-35 0 -55 16v63q43 0 72 20.5t29 57.5v455q0 82 -97 82v94q92 0 92 84v279q0 100 -81.5 100t-81.5 -102v-1133h-125v1102q0 125 52 193.5t150 68.5q104 0 157.5 -65.5t53.5 -188.5v-233q0 -109 -82 -154q86 -45 86 -156v-401z" />
<glyph unicode="&#xe0;" horiz-adv-x="518" d="M475 -16h-31q-80 0 -98 88q-51 -88 -139 -88q-78 0 -121 60t-43 165v45q0 201 281 332v155q0 98 -74 99q-43 0 -57.5 -23.5t-14.5 -77.5v-92h-112v101q0 98 50 159.5t138 61.5q92 0 141 -62.5t49 -169.5v-610q0 -45 31 -45v-98zM324 227v236q-78 -29 -121 -83t-43 -112 v-63q0 -102 71 -103q39 0 66 38t27 87zM293 1067h-82l-123 246h133z" />
<glyph unicode="&#xe1;" horiz-adv-x="518" d="M475 -16h-31q-80 0 -98 88q-51 -88 -139 -88q-78 0 -121 60t-43 165v45q0 201 281 332v155q0 98 -74 99q-43 0 -57.5 -23.5t-14.5 -77.5v-92h-112v101q0 98 50 159.5t138 61.5q92 0 141 -62.5t49 -169.5v-610q0 -45 31 -45v-98zM324 227v236q-78 -29 -121 -83t-43 -112 v-63q0 -102 71 -103q39 0 66 38t27 87zM414 1313l-123 -246h-82l72 246h133z" />
<glyph unicode="&#xe2;" horiz-adv-x="518" d="M475 -16h-31q-80 0 -98 88q-51 -88 -139 -88q-78 0 -121 60t-43 165v45q0 201 281 332v155q0 98 -74 99q-43 0 -57.5 -23.5t-14.5 -77.5v-92h-112v101q0 98 50 159.5t138 61.5q92 0 141 -62.5t49 -169.5v-610q0 -45 31 -45v-98zM324 227v236q-78 -29 -121 -83t-43 -112 v-63q0 -102 71 -103q39 0 66 38t27 87zM455 1081q-41 -12 -68 -12q-109 0 -131 123q-27 -123 -133 -123q-18 0 -60 12v41q43 0 86.5 42t61.5 122h96q18 -80 60.5 -122t87.5 -42v-41z" />
<glyph unicode="&#xe3;" horiz-adv-x="518" d="M475 -16h-31q-80 0 -98 88q-51 -88 -139 -88q-78 0 -121 60t-43 165v45q0 201 281 332v155q0 98 -74 99q-43 0 -57.5 -23.5t-14.5 -77.5v-92h-112v101q0 98 50 159.5t138 61.5q92 0 141 -62.5t49 -169.5v-610q0 -45 31 -45v-98zM324 227v236q-78 -29 -121 -83t-43 -112 v-63q0 -102 71 -103q39 0 66 38t27 87zM442 1204q0 -123 -98 -123q-35 0 -97.5 42t-76.5 42q-29 0 -29 -32v-52h-61q-18 29 -19 64q0 121 97 121q39 0 100 -41t76 -41q29 0 28 33v51h62q18 -27 18 -64z" />
<glyph unicode="&#xe4;" horiz-adv-x="518" d="M475 -16h-31q-80 0 -98 88q-51 -88 -139 -88q-78 0 -121 60t-43 165v45q0 201 281 332v155q0 98 -74 99q-43 0 -57.5 -23.5t-14.5 -77.5v-92h-112v101q0 98 50 159.5t138 61.5q92 0 141 -62.5t49 -169.5v-610q0 -45 31 -45v-98zM324 227v236q-78 -29 -121 -83t-43 -112 v-63q0 -102 71 -103q39 0 66 38t27 87zM401 1108h-110v168h110v-168zM215 1108h-113v168h113v-168z" />
<glyph unicode="&#xe5;" horiz-adv-x="518" d="M475 -16h-31q-80 0 -98 88q-51 -88 -139 -88q-78 0 -121 60t-43 165v45q0 201 281 332v155q0 98 -74 99q-43 0 -57.5 -23.5t-14.5 -77.5v-92h-112v101q0 98 50 159.5t138 61.5q92 0 141 -62.5t49 -169.5v-610q0 -45 31 -45v-98zM324 227v236q-78 -29 -121 -83t-43 -112 v-63q0 -102 71 -103q39 0 66 38t27 87zM367 1194q0 -51 -32 -88t-81 -37t-82 37t-33 88t33 89t82 38t81 -38t32 -89zM311 1194q0 74 -57 74q-55 0 -55 -74t55 -74q57 0 57 74z" />
<glyph unicode="&#xe6;" horiz-adv-x="770" d="M715 231q0 -111 -52.5 -179t-125.5 -68q-111 0 -158 96q-57 -96 -162 -96q-174 0 -174 225v45q0 201 283 332v151q0 104 -76 104.5t-76 -102.5v-92h-106v101q0 98 47 159.5t127 61.5q98 0 143 -99q53 98 152 99q76 0 127 -71t51 -181v-258h-273v-244q0 -106 84 -106 q78 0 78 106v119h111v-103zM604 553v180q0 109 -78 109q-84 0 -84 -109v-180h162zM326 227v236q-78 -29 -121 -83t-43 -112v-63q0 -102 71 -103q39 0 66 37t27 88z" />
<glyph unicode="&#xe7;" horiz-adv-x="499" d="M217 -12q-72 16 -115 81.5t-43 163.5v484q0 113 55.5 182.5t145.5 69.5q94 0 144.5 -67.5t50.5 -182.5v-103h-107v125q0 45 -21.5 73t-60.5 28t-61.5 -28t-22.5 -75v-528q0 -98 84 -98q82 0 82 96v123h107v-101q0 -109 -46.5 -174t-132.5 -71l-67 -107q16 10 49 10 q57 0 88 -34.5t31 -90.5q0 -53 -37 -91t-94 -38q-29 0 -51 15v45h30q57 0 58 59v23q0 63 -58 63q-35 0 -63 -33l-41 31z" />
<glyph unicode="&#xe8;" horiz-adv-x="507" d="M455 231q0 -115 -51.5 -181t-141.5 -66t-146.5 68.5t-56.5 180.5v484q0 113 56.5 182.5t146.5 69.5t141.5 -69t51.5 -183v-258h-273v-244q0 -106 84 -106q78 0 78 106v119h111v-103zM344 553v180q0 109 -78 109q-84 0 -84 -109v-180h162zM301 1067h-82l-123 246h133z" />
<glyph unicode="&#xe9;" horiz-adv-x="507" d="M455 231q0 -115 -51.5 -181t-141.5 -66t-146.5 68.5t-56.5 180.5v484q0 113 56.5 182.5t146.5 69.5t141.5 -69t51.5 -183v-258h-273v-244q0 -106 84 -106q78 0 78 106v119h111v-103zM344 553v180q0 109 -78 109q-84 0 -84 -109v-180h162zM424 1313l-123 -246h-82l72 246 h133z" />
<glyph unicode="&#xea;" horiz-adv-x="507" d="M455 231q0 -115 -51.5 -181t-141.5 -66t-146.5 68.5t-56.5 180.5v484q0 113 56.5 182.5t146.5 69.5t141.5 -69t51.5 -183v-258h-273v-244q0 -106 84 -106q78 0 78 106v119h111v-103zM344 553v180q0 109 -78 109q-84 0 -84 -109v-180h162zM455 1081q-41 -12 -68 -12 q-109 0 -131 123q-27 -123 -133 -123q-18 0 -60 12v41q43 0 86.5 42t61.5 122h96q18 -80 60.5 -122t87.5 -42v-41z" />
<glyph unicode="&#xeb;" horiz-adv-x="507" d="M455 231q0 -115 -51.5 -181t-141.5 -66t-146.5 68.5t-56.5 180.5v484q0 113 56.5 182.5t146.5 69.5t141.5 -69t51.5 -183v-258h-273v-244q0 -106 84 -106q78 0 78 106v119h111v-103zM344 553v180q0 109 -78 109q-84 0 -84 -109v-180h162zM406 1108h-111v168h111v-168z M219 1108h-113v168h113v-168z" />
<glyph unicode="&#xec;" horiz-adv-x="260" d="M193 0h-125v958h125v-958zM166 1067h-82l-123 246h133z" />
<glyph unicode="&#xed;" horiz-adv-x="260" d="M193 0h-125v958h125v-958zM293 1313l-123 -246h-82l72 246h133z" />
<glyph unicode="&#xee;" horiz-adv-x="260" d="M193 0h-125v958h125v-958zM330 1081q-41 -12 -68 -12q-109 0 -131 123q-27 -123 -133 -123q-18 0 -59 12v41q45 0 87 42t60 122h96q18 -80 61.5 -122t86.5 -42v-41z" />
<glyph unicode="&#xef;" horiz-adv-x="260" d="M193 0h-125v958h125v-958zM276 1108h-110v168h110v-168zM90 1108h-113v168h113v-168z" />
<glyph unicode="&#xf0;" horiz-adv-x="530" d="M377 1274l67 39l35 -86l-61 -35q55 -129 55 -334v-627q0 -111 -59.5 -179t-149.5 -68q-88 0 -146.5 67.5t-58.5 179.5v535q0 86 41 142.5t109 56.5q96 0 139 -93q0 158 -35 263l-90 -50l-33 86l86 48q-41 72 -112 139v6h141q37 -35 72 -90zM182 207q0 -43 22.5 -67.5 t59.5 -24.5q39 0 61.5 24.5t22.5 67.5v532q0 47 -22.5 76t-61.5 29q-82 0 -82 -105v-532z" />
<glyph unicode="&#xf1;" d="M485 0h-125v752q0 43 -21.5 69.5t-55.5 26.5q-41 0 -65.5 -38t-24.5 -83v-727h-125v958h110l8 -127q43 135 148 136q72 0 111.5 -53.5t39.5 -143.5v-770zM453 1204q0 -123 -99 -123q-35 0 -97 42t-77 42q-29 0 -28 -32v-52h-62q-18 29 -18 64q0 121 96 121 q37 0 100.5 -41t75.5 -41q29 0 29 33v51h61q19 -27 19 -64z" />
<glyph unicode="&#xf2;" horiz-adv-x="530" d="M471 233q0 -113 -57.5 -181t-147.5 -68q-92 0 -149.5 68.5t-57.5 180.5v484q0 113 57.5 182.5t149.5 69.5q90 0 147.5 -71t57.5 -181v-484zM348 209v532q0 45 -21.5 73t-60.5 28t-60.5 -28t-21.5 -73v-532q0 -96 82 -96t82 96zM307 1067h-82l-123 246h134z" />
<glyph unicode="&#xf3;" horiz-adv-x="530" d="M471 233q0 -113 -57.5 -181t-147.5 -68q-92 0 -149.5 68.5t-57.5 180.5v484q0 113 57.5 182.5t149.5 69.5q90 0 147.5 -71t57.5 -181v-484zM348 209v532q0 45 -21.5 73t-60.5 28t-60.5 -28t-21.5 -73v-532q0 -96 82 -96t82 96zM430 1313l-123 -246h-82l72 246h133z" />
<glyph unicode="&#xf4;" horiz-adv-x="530" d="M471 233q0 -113 -57.5 -181t-147.5 -68q-92 0 -149.5 68.5t-57.5 180.5v484q0 113 57.5 182.5t149.5 69.5q90 0 147.5 -71t57.5 -181v-484zM348 209v532q0 45 -21.5 73t-60.5 28t-60.5 -28t-21.5 -73v-532q0 -96 82 -96t82 96zM465 1081q-41 -12 -68 -12q-109 0 -131 123 q-27 -123 -133 -123q-18 0 -59 12v41q45 0 87 42t60 122h96q18 -80 61.5 -122t86.5 -42v-41z" />
<glyph unicode="&#xf5;" horiz-adv-x="530" d="M471 233q0 -113 -57.5 -181t-147.5 -68q-92 0 -149.5 68.5t-57.5 180.5v484q0 113 57.5 182.5t149.5 69.5q90 0 147.5 -71t57.5 -181v-484zM348 209v532q0 45 -21.5 73t-60.5 28t-60.5 -28t-21.5 -73v-532q0 -96 82 -96t82 96zM449 1204q0 -123 -99 -123q-35 0 -97.5 42 t-76.5 42q-29 0 -29 -32v-52h-61q-18 29 -18 64q0 121 96 121q37 0 100.5 -41t75.5 -41q29 0 29 33v51h61q19 -27 19 -64z" />
<glyph unicode="&#xf6;" horiz-adv-x="530" d="M471 233q0 -113 -57.5 -181t-147.5 -68q-92 0 -149.5 68.5t-57.5 180.5v484q0 113 57.5 182.5t149.5 69.5q90 0 147.5 -71t57.5 -181v-484zM348 209v532q0 45 -21.5 73t-60.5 28t-60.5 -28t-21.5 -73v-532q0 -96 82 -96t82 96zM414 1108h-111v168h111v-168zM227 1108 h-112v168h112v-168z" />
<glyph unicode="&#xf8;" horiz-adv-x="530" d="M526 952l-67 -143q12 -39 12 -92v-484q0 -113 -57.5 -181t-147.5 -68q-104 0 -162 84l-49 -105l-49 37l11 23l22 45q14 31 22 51l11 18q-12 43 -13 96v484q0 113 57.5 182.5t149.5 69.5q100 0 160 -86l49 104zM348 719v22q0 45 -21.5 73t-60.5 28t-60.5 -28t-21.5 -73 v-366zM348 209v369l-164 -345v-2v-2v-20q0 -96 82 -96t82 96z" />
<glyph unicode="&#xf9;" d="M483 0h-112l-9 109q-39 -127 -145 -127q-72 0 -111.5 54t-39.5 146v776h124v-761q0 -43 21.5 -69t56.5 -26q39 0 63.5 38t24.5 81v737h127v-958zM317 1067h-81l-123 246h133z" />
<glyph unicode="&#xfa;" d="M483 0h-112l-9 109q-39 -127 -145 -127q-72 0 -111.5 54t-39.5 146v776h124v-761q0 -43 21.5 -69t56.5 -26q39 0 63.5 38t24.5 81v737h127v-958zM438 1313l-123 -246h-82l72 246h133z" />
<glyph unicode="&#xfb;" d="M483 0h-112l-9 109q-39 -127 -145 -127q-72 0 -111.5 54t-39.5 146v776h124v-761q0 -43 21.5 -69t56.5 -26q39 0 63.5 38t24.5 81v737h127v-958zM471 1081q-41 -12 -68 -12q-109 0 -131 123q-27 -123 -133 -123q-18 0 -59 12v41q43 0 86 42t61 122h97q18 -80 60 -122 t87 -42v-41z" />
<glyph unicode="&#xfc;" d="M483 0h-112l-9 109q-39 -127 -145 -127q-72 0 -111.5 54t-39.5 146v776h124v-761q0 -43 21.5 -69t56.5 -26q39 0 63.5 38t24.5 81v737h127v-958zM420 1108h-111v168h111v-168zM233 1108h-112v168h112v-168z" />
<glyph unicode="&#xfd;" horiz-adv-x="471" d="M449 958l-170 -1054q-23 -139 -64 -197.5t-137 -58.5h-31v116h25q39 0 56 19.5t26 62.5l20 144l-156 968h123l68 -536l22 -211l27 211l68 536h123zM401 1313l-122 -246h-82l71 246h133z" />
<glyph unicode="&#xfe;" horiz-adv-x="540" d="M483 188q0 -88 -41 -143t-106 -55q-98 0 -143 94v-430h-125v1710h125v-479q45 92 143 92q66 0 106.5 -55.5t40.5 -145.5v-588zM360 221v527q0 49 -22.5 77.5t-58.5 28.5q-39 0 -62.5 -28.5t-23.5 -75.5v-533q0 -47 22.5 -74.5t63.5 -27.5q81 0 81 106z" />
<glyph unicode="&#xff;" horiz-adv-x="471" d="M449 958l-170 -1054q-23 -139 -64 -197.5t-137 -58.5h-31v116h25q39 0 56 19.5t26 62.5l20 144l-156 968h123l68 -536l22 -211l27 211l68 536h123zM387 1108h-111v168h111v-168zM201 1108h-113v168h113v-168z" />
<glyph unicode="&#x152;" horiz-adv-x="907" d="M864 0h-542q-258 0 -259 311v742q0 311 259 311h542v-137h-284v-455h206v-131h-206v-504h284v-137zM432 141v1080h-108q-59 0 -86 -36t-27 -118v-772q0 -82 26.5 -118t86.5 -36h108z" />
<glyph unicode="&#x153;" horiz-adv-x="792" d="M739 231q0 -113 -51 -180t-129 -67q-104 0 -151 96q-51 -96 -156 -96q-78 0 -135.5 69.5t-57.5 179.5v484q0 109 57.5 180.5t135.5 71.5q104 0 156 -101q49 100 151 101q78 0 129 -71t51 -181v-258h-272v-244q0 -106 82 -106q80 0 80 106v119h110v-103zM629 553v180 q0 109 -80 109q-82 0 -82 -109v-180h162zM346 209v532q0 45 -21.5 73t-60.5 28q-37 0 -59.5 -29t-22.5 -72v-532q0 -45 21.5 -70.5t60.5 -25.5q82 0 82 96z" />
<glyph unicode="&#x178;" horiz-adv-x="581" d="M580 1364l-222 -825v-539h-147v539l-211 825h147l146 -635l145 635h142zM440 1473h-110v167h110v-167zM254 1473h-113v167h113v-167z" />
<glyph unicode="&#x2c6;" horiz-adv-x="417" d="M406 1081q-41 -12 -68 -12q-109 0 -131 123q-27 -123 -133 -123q-18 0 -60 12v41q43 0 86 42t62 122h96q18 -80 60 -122t88 -42v-41z" />
<glyph unicode="&#x2dc;" horiz-adv-x="407" d="M395 1204q0 -123 -98 -123q-35 0 -97.5 42t-76.5 42q-29 0 -29 -32v-52h-61q-18 29 -19 64q0 121 97 121q37 0 100 -41t76 -41q29 0 28 33v51h62q18 -27 18 -64z" />
<glyph unicode="&#x2000;" horiz-adv-x="837" />
<glyph unicode="&#x2001;" horiz-adv-x="1677" />
<glyph unicode="&#x2002;" horiz-adv-x="837" />
<glyph unicode="&#x2003;" horiz-adv-x="1677" />
<glyph unicode="&#x2004;" horiz-adv-x="559" />
<glyph unicode="&#x2005;" horiz-adv-x="417" />
<glyph unicode="&#x2006;" horiz-adv-x="278" />
<glyph unicode="&#x2007;" horiz-adv-x="278" />
<glyph unicode="&#x2008;" horiz-adv-x="208" />
<glyph unicode="&#x2009;" horiz-adv-x="333" />
<glyph unicode="&#x200a;" horiz-adv-x="92" />
<glyph unicode="&#x2010;" horiz-adv-x="358" d="M330 584h-301v123h301v-123z" />
<glyph unicode="&#x2011;" horiz-adv-x="358" d="M330 584h-301v123h301v-123z" />
<glyph unicode="&#x2012;" horiz-adv-x="358" d="M330 584h-301v123h301v-123z" />
<glyph unicode="&#x2013;" horiz-adv-x="870" d="M743 584h-614v123h614v-123z" />
<glyph unicode="&#x2014;" horiz-adv-x="1306" d="M1180 584h-1051v123h1051v-123z" />
<glyph unicode="&#x2018;" horiz-adv-x="227" d="M51 1188q0 176 135 176v-43q-68 0 -67 -111h55v-206h-123v184z" />
<glyph unicode="&#x2019;" horiz-adv-x="227" d="M176 1180q0 -176 -135 -176v43q68 0 68 112h-56v205h123v-184z" />
<glyph unicode="&#x201a;" horiz-adv-x="227" d="M176 20q0 -176 -135 -176v43q68 0 68 113h-56v205h123v-185z" />
<glyph unicode="&#x201c;" horiz-adv-x="405" d="M229 1188q0 176 133 176v-43q-68 0 -67 -111h57v-206h-123v184zM51 1188q0 176 135 176v-43q-68 0 -67 -111h55v-206h-123v184z" />
<glyph unicode="&#x201d;" horiz-adv-x="405" d="M352 1180q0 -176 -135 -176v43q70 0 70 112h-58v205h123v-184zM176 1180q0 -176 -135 -176v43q68 0 68 112h-56v205h123v-184z" />
<glyph unicode="&#x201e;" horiz-adv-x="405" d="M352 20q0 -176 -135 -176v43q70 0 70 113h-58v205h123v-185zM176 20q0 -176 -135 -176v43q68 0 68 113h-56v205h123v-185z" />
<glyph unicode="&#x2022;" horiz-adv-x="440" d="M406 682q0 -86 -52.5 -137t-132.5 -51q-82 0 -134 50t-52 138q0 86 52 136t134 50q80 0 132.5 -50t52.5 -136z" />
<glyph unicode="&#x2026;" horiz-adv-x="714" d="M651 0h-123v205h123v-205zM418 0h-123v205h123v-205zM186 0h-123v205h123v-205z" />
<glyph unicode="&#x202f;" horiz-adv-x="333" />
<glyph unicode="&#x2039;" horiz-adv-x="358" d="M317 0h-67q-35 240 -219 338v117q184 98 219 338h67q0 -270 -157 -398q157 -127 157 -395z" />
<glyph unicode="&#x203a;" horiz-adv-x="358" d="M328 338q-184 -98 -219 -338h-66q0 270 158 395q-158 125 -158 398h66q35 -240 219 -338v-117z" />
<glyph unicode="&#x2044;" horiz-adv-x="172" d="M633 1464l-1024 -1609l-66 45l1026 1609z" />
<glyph unicode="&#x205f;" horiz-adv-x="417" />
<glyph unicode="&#x2122;" horiz-adv-x="813" d="M748 987h-70v305l-27 -106l-61 -199h-66l-57 199l-27 106v-305h-69v377h106l58 -209l24 -100l27 100l53 209h109v-377zM305 1300h-100v-313h-76v313h-100v64h276v-64z" />
<glyph unicode="&#xe000;" horiz-adv-x="960" d="M0 960h960v-960h-960v960z" />
<glyph unicode="&#xfb01;" horiz-adv-x="583" d="M508 1090h-111v153h111v-153zM309 836h-86v-836h-125v836h-73v118h73v140q0 270 193 270h33v-119h-29q-78 0 -78 -98v-193h92v-118zM514 0h-123v958h123v-958z" />
<glyph unicode="&#xfb02;" horiz-adv-x="583" d="M514 0h-123v1364h123v-1364zM309 836h-86v-836h-125v836h-73v118h73v140q0 270 193 270h33v-119h-29q-78 0 -78 -98v-193h92v-118z" />
<glyph unicode="&#xfb03;" horiz-adv-x="903" d="M829 1090h-112v153h112v-153zM836 0h-125v958h125v-958zM631 836h-86v-836h-125v836h-73v118h73v140q0 270 193 270h33v-119h-29q-78 0 -78 -98v-193h92v-118zM309 836h-86v-836h-125v836h-73v118h73v140q0 270 193 270h33v-119h-29q-78 0 -78 -98v-193h92v-118z" />
<glyph unicode="&#xfb04;" horiz-adv-x="903" d="M836 0h-125v1364h125v-1364zM631 836h-86v-836h-125v836h-73v118h73v140q0 270 193 270h33v-119h-29q-78 0 -78 -98v-193h92v-118zM309 836h-86v-836h-125v836h-73v118h73v140q0 270 193 270h33v-119h-29q-78 0 -78 -98v-193h92v-118z" />
</font>
</defs>
</svg>
